<?xml version="1.0" standalone="no"?>
<!DOCTYPE svg PUBLIC "-//W3C//DTD SVG 1.1//EN" "http://www.w3.org/Graphics/SVG/1.1/DTD/svg11.dtd" >
<svg xmlns="http://www.w3.org/2000/svg" xmlns:xlink="http://www.w3.org/1999/xlink" version="1.1">
<metadata>
Created by FontForge 20170731 at Tue Mar 14 13:43:26 2023
 By Aleksey,,,
Copyright (c) 2016 by Martin Va'cha. All rights reserved.
</metadata>
<defs>
<font id="Matter-SemiBold" horiz-adv-x="1613" >
  <font-face 
    font-family="Matter SemiBold"
    font-weight="600"
    font-stretch="normal"
    units-per-em="2048"
    panose-1="0 0 0 0 0 0 0 0 0 0"
    ascent="1638"
    descent="-410"
    x-height="1032"
    cap-height="1434"
    bbox="-307 -434 3344 2232"
    underline-thickness="102"
    underline-position="-358"
    unicode-range="U+000D-FB02"
  />
<missing-glyph horiz-adv-x="2193" 
d="M72 633q0 202 78 388.5t210 323.5t314.5 222t384.5 92v-2048q-202 7 -385 90.5t-315 220t-209.5 322.5t-77.5 389zM1133 -383v2034q83 -28 153 -172t111 -368.5t41 -477.5t-41 -477t-111 -367t-153 -172zM1288 -350q103 134 164 398t61 585t-61 585.5t-164 401.5
q146 -62 262 -207.5t181 -349.5t65 -430q0 -344 -142 -617t-366 -366zM1497 -307q172 150 273.5 400t101.5 540q0 289 -101.5 541t-273.5 401q281 -119 452 -376t171 -566q0 -310 -171 -566t-452 -374z" />
    <glyph glyph-name=".notdef" horiz-adv-x="2193" 
d="M72 633q0 202 78 388.5t210 323.5t314.5 222t384.5 92v-2048q-202 7 -385 90.5t-315 220t-209.5 322.5t-77.5 389zM1133 -383v2034q83 -28 153 -172t111 -368.5t41 -477.5t-41 -477t-111 -367t-153 -172zM1288 -350q103 134 164 398t61 585t-61 585.5t-164 401.5
q146 -62 262 -207.5t181 -349.5t65 -430q0 -344 -142 -617t-366 -366zM1497 -307q172 150 273.5 400t101.5 540q0 289 -101.5 541t-273.5 401q281 -119 452 -376t171 -566q0 -310 -171 -566t-452 -374z" />
    <glyph glyph-name=".null" horiz-adv-x="0" 
 />
    <glyph glyph-name="nonmarkingreturn" horiz-adv-x="682" 
 />
    <glyph glyph-name="CR" unicode="&#xd;" horiz-adv-x="491" 
 />
    <glyph glyph-name="space" unicode=" " horiz-adv-x="491" 
 />
    <glyph glyph-name="exclam" unicode="!" horiz-adv-x="600" 
d="M201 461l-60 973h318l-58 -973h-200zM139 141q0 67 46 112.5t114 45.5q69 0 114.5 -45t45.5 -113t-45.5 -112.5t-114.5 -44.5q-68 0 -114 45t-46 112z" />
    <glyph glyph-name="quotedbl" unicode="&#x22;" horiz-adv-x="856" 
d="M150 948l-58 502h281l-58 -502h-165zM485 1450h281l-57 -502h-166z" />
    <glyph glyph-name="numbersign" unicode="#" horiz-adv-x="1419" 
d="M696 0l88 399h-276l-88 -399h-199l86 399h-246v191h289l53 254h-253v190h296l86 400h201l-88 -400h277l88 400h198l-86 -400h236v-190h-279l-53 -254h246v-191h-289l-86 -399h-201zM549 590h276l56 254h-277z" />
    <glyph glyph-name="dollar" unicode="$" horiz-adv-x="1210" 
d="M498 -203v197q-176 31 -299 151.5t-146 288.5l248 76q17 -128 105.5 -208.5t209.5 -80.5q113 0 180.5 49t67.5 131q0 49 -26 86.5t-70 61.5t-101 43.5t-120 38t-126 40t-120 54t-101 75t-70 108.5t-26 149q0 149 110 253.5t284 131.5v196h229v-198q159 -28 269 -122.5
t139 -230.5l-250 -102q-22 105 -97 166t-186 61q-103 0 -162 -41.5t-59 -113.5q0 -41 26 -71t70.5 -49t102 -34.5t121 -32t127 -37.5t121 -56t102 -82t70.5 -120.5t26 -166.5q0 -165 -113.5 -276.5t-306.5 -139.5v-197z" />
    <glyph glyph-name="percent" unicode="%" horiz-adv-x="1609" 
d="M219 0l959 1434h208l-958 -1434h-209zM51 1090q0 161 92 260.5t244 99.5q150 0 242 -100t92 -260q0 -161 -92 -261t-242 -100q-151 0 -243.5 100t-92.5 261zM248 1090q0 -86 37 -135.5t102 -49.5q63 0 99 49.5t36 135.5t-36 135t-99 49q-65 0 -102 -49t-37 -135zM891 344
q0 161 92.5 261t243.5 100q150 0 242 -100t92 -261q0 -160 -92 -260t-242 -100q-152 0 -244 99.5t-92 260.5zM1087 344q0 -86 37.5 -135t102.5 -49q63 0 99 49t36 135t-36 135t-99 49q-65 0 -102.5 -49t-37.5 -135z" />
    <glyph glyph-name="ampersand" unicode="&#x26;" horiz-adv-x="1392" 
d="M561 -16q-211 0 -338 118t-127 316q0 72 21.5 132t62.5 105.5t84.5 77.5t102.5 64q-68 87 -98.5 156t-30.5 139q0 164 100.5 261t269.5 97q167 0 266 -97t99 -261q0 -122 -63 -206.5t-173 -152.5l213 -244l180 199l191 -178l-195 -223l250 -287h-325l-101 117
q-183 -133 -389 -133zM358 418q0 -88 62 -142.5t160 -54.5q93 0 200 92l-260 301q-79 -46 -120.5 -90.5t-41.5 -105.5zM475 1092q0 -61 113 -187q74 39 113.5 83t39.5 104q0 59 -37.5 96t-95.5 37q-60 0 -96.5 -36.5t-36.5 -96.5z" />
    <glyph glyph-name="quotesingle" unicode="'" horiz-adv-x="462" 
d="M150 948l-58 502h281l-58 -502h-165z" />
    <glyph glyph-name="parenleft" unicode="(" horiz-adv-x="598" 
d="M395 -373q-172 207 -261 461t-89 537q0 281 89 534.5t261 458.5l176 -133q-282 -392 -282 -860q0 -467 282 -865z" />
    <glyph glyph-name="parenright" unicode=")" horiz-adv-x="598" 
d="M27 -240q282 398 282 865q0 468 -282 860l176 133q172 -205 261 -458.5t89 -534.5q0 -283 -89 -537t-261 -461z" />
    <glyph glyph-name="asterisk" unicode="*" horiz-adv-x="997" 
d="M934 1040l-279 -82l179 -231l-156 -117l-178 244l-181 -244l-155 117l178 231l-279 82l58 189l282 -90l-2 295h197l-4 -295l283 90z" />
    <glyph glyph-name="plus" unicode="+" horiz-adv-x="1140" 
d="M1075 776v-221h-395v-393h-219v393h-395v221h393v393h221v-393h395z" />
    <glyph glyph-name="comma" unicode="," horiz-adv-x="614" 
d="M49 -256l135 526h308l-273 -526h-170z" />
    <glyph glyph-name="hyphen" unicode="-" horiz-adv-x="770" 
d="M55 481v221h660v-221h-660z" />
    <glyph glyph-name="period" unicode="." horiz-adv-x="571" 
d="M285 -16q-68 0 -114 45t-46 112t46 112.5t114 45.5q69 0 114 -45t45 -113t-45 -112.5t-114 -44.5z" />
    <glyph glyph-name="slash" unicode="/" horiz-adv-x="937" 
d="M12 -2l643 1436h271l-645 -1436h-269z" />
    <glyph glyph-name="zero" unicode="0" horiz-adv-x="1308" 
d="M653 -16q-271 0 -426 199t-155 534t155 534t426 199t426.5 -199t155.5 -534t-155.5 -534t-426.5 -199zM352 717q0 -233 77.5 -362.5t223.5 -129.5t224.5 129.5t78.5 362.5t-78.5 363t-224.5 130t-223.5 -130t-77.5 -363z" />
    <glyph glyph-name="one" unicode="1" horiz-adv-x="776" 
d="M383 1126q-144 -114 -330 -151v248q100 23 198.5 78.5t176.5 132.5h213v-1434h-258v1126z" />
    <glyph glyph-name="two" unicode="2" horiz-adv-x="1175" 
d="M59 0l-2 225l510 430q118 99 171 180t53 162q0 97 -61.5 155t-162.5 58q-119 0 -183 -85.5t-52 -227.5l-264 18q-11 112 23 212t101.5 170.5t165 111.5t209.5 41q226 0 365 -125.5t139 -327.5q0 -135 -81.5 -260.5t-258.5 -265.5l-282 -229h620v-242h-1010z" />
    <glyph glyph-name="three" unicode="3" horiz-adv-x="1204" 
d="M586 -16q-221 0 -368 116t-167 306l254 40q15 -100 92 -160.5t191 -60.5q118 0 191 66t73 172q0 110 -69.5 173.5t-188.5 63.5q-95 0 -162 -47l-108 183l393 358h-625v240h950v-226l-366 -327q203 8 328.5 -107.5t125.5 -316.5q0 -214 -149 -343.5t-395 -129.5z" />
    <glyph glyph-name="four" unicode="4" horiz-adv-x="1292" 
d="M770 0v299h-723v242l701 893h301v-893h182v-242h-182v-299h-279zM334 541h436v561z" />
    <glyph glyph-name="five" unicode="5" horiz-adv-x="1189" 
d="M596 -16q-212 0 -356.5 108.5t-173.5 288.5l251 47q20 -94 92.5 -148.5t176.5 -54.5q114 0 183 70t69 184q0 118 -73 187t-196 69q-168 0 -268 -145l-201 43l119 801h791v-240h-588l-53 -342q51 45 124 73.5t146 28.5q212 0 344.5 -131.5t132.5 -343.5
q0 -224 -142 -359.5t-378 -135.5z" />
    <glyph glyph-name="six" unicode="6" horiz-adv-x="1261" 
d="M664 967q220 0 361.5 -138.5t141.5 -353.5t-153 -353t-391 -138q-244 0 -397.5 185t-153.5 482q0 157 36 289t99 225t149 158t185.5 96t208.5 31q245 0 419 -145l-127 -203q-127 108 -286 108q-177 0 -293.5 -115t-128.5 -298q50 80 137 125t193 45zM365 489
q0 -116 74.5 -190t191.5 -74q115 0 188.5 74t73.5 190q2 114 -72.5 188.5t-189.5 74.5q-117 0 -191.5 -74.5t-74.5 -188.5z" />
    <glyph glyph-name="seven" unicode="7" horiz-adv-x="1146" 
d="M217 0q34 267 190.5 574t399.5 620h-746v240h1033v-240q-558 -756 -596 -1194h-281z" />
    <glyph glyph-name="eight" unicode="8" horiz-adv-x="1191" 
d="M598 -16q-228 0 -378 119t-150 317q0 121 70 217.5t186 134.5q-88 41 -141.5 121t-53.5 172q0 167 129.5 276t337.5 109q205 0 334 -109.5t129 -275.5q0 -94 -54 -173.5t-143 -119.5q117 -37 187.5 -133t70.5 -219q0 -132 -70 -232t-188.5 -152t-265.5 -52zM342 426
q0 -98 69.5 -156.5t186.5 -58.5q115 0 183.5 58.5t68.5 156.5q0 97 -68.5 155t-183.5 58q-117 0 -186.5 -58t-69.5 -155zM387 1055q0 -82 57.5 -131.5t153.5 -49.5q94 0 150.5 49.5t56.5 131.5q1 83 -55.5 131.5t-151.5 48.5q-97 0 -154.5 -48.5t-56.5 -131.5z" />
    <glyph glyph-name="nine" unicode="9" horiz-adv-x="1269" 
d="M606 467q-220 0 -362 138t-142 353t153.5 353.5t391.5 138.5q160 0 285.5 -83.5t195.5 -236t70 -348.5q0 -195 -55 -350t-149.5 -251.5t-215.5 -146.5t-258 -50q-246 0 -420 145l127 203q128 -109 287 -109q177 0 293.5 115.5t128.5 298.5q-50 -80 -137 -125t-193 -45z
M377 944q-1 -114 73 -188t189 -74q117 0 191.5 74t74.5 188q0 116 -74.5 190t-191.5 74q-115 0 -188.5 -74t-73.5 -190z" />
    <glyph glyph-name="colon" unicode=":" horiz-adv-x="571" 
d="M285 733q-68 0 -114 45.5t-46 112.5t46 112.5t114 45.5q69 0 114 -45t45 -113t-45 -113t-114 -45zM125 141q0 67 46 112.5t114 45.5q69 0 114 -45t45 -113t-45 -112.5t-114 -44.5q-68 0 -114 45t-46 112z" />
    <glyph glyph-name="semicolon" unicode=";" horiz-adv-x="624" 
d="M37 -256l135 526h307l-272 -526h-170zM211 891q0 67 46 112.5t114 45.5q69 0 114 -45t45 -113t-45 -113t-114 -45q-68 0 -114 45.5t-46 112.5z" />
    <glyph glyph-name="less" unicode="&#x3c;" horiz-adv-x="1124" 
d="M1059 66l-993 417v224l993 417v-264l-670 -266l670 -266v-262z" />
    <glyph glyph-name="equal" unicode="=" horiz-adv-x="1124" 
d="M66 334v221h993v-221h-993zM66 776v221h993v-221h-993z" />
    <glyph glyph-name="greater" unicode="&#x3e;" horiz-adv-x="1124" 
d="M66 66v262l669 266l-669 266v264l993 -417v-224z" />
    <glyph glyph-name="question" unicode="?" horiz-adv-x="1081" 
d="M358 442q-6 75 12 135t51.5 100t75 73t84.5 62t79 59t58.5 72t22.5 93q0 85 -56 138t-148 53q-113 0 -175 -69.5t-53 -184.5l-246 24q-8 204 122.5 328.5t351.5 124.5q214 0 343.5 -113t129.5 -299q0 -76 -23 -137.5t-59 -101t-80 -72.5t-87 -61.5t-78.5 -58t-56 -71.5
t-18.5 -94h-250zM334 141q0 67 46 112.5t114 45.5q69 0 114 -45t45 -113t-45 -112.5t-114 -44.5q-68 0 -114 45t-46 112z" />
    <glyph glyph-name="at" unicode="@" horiz-adv-x="1869" 
d="M1120 971h203v-520q0 -49 28 -77t70 -28q73 0 119.5 83.5t46.5 225.5q0 166 -80.5 293t-221.5 194.5t-320 67.5q-194 0 -348 -82t-240 -229.5t-86 -333.5q0 -294 187 -477.5t487 -183.5q138 0 264.5 36.5t263.5 112.5l76 -207q-168 -75 -311.5 -109t-305.5 -34
q-189 0 -351 64.5t-276.5 178t-179.5 273.5t-65 346q0 179 67.5 336.5t184 269t281 176t352.5 64.5q236 0 427 -98t298.5 -271t107.5 -387q0 -234 -108 -371t-281 -137q-86 0 -150 34.5t-96 97.5q-37 -60 -106 -93.5t-160 -33.5q-178 0 -283.5 112t-105.5 303
q0 185 106 299.5t275 116.5q72 0 132.5 -26.5t98.5 -71.5v86zM709 567q0 -110 58.5 -175.5t154.5 -65.5q95 0 153 66t58 175t-58 175.5t-153 66.5t-154 -66.5t-59 -175.5z" />
    <glyph glyph-name="A" unicode="A" horiz-adv-x="1390" 
d="M696 1069l-190 -516h381zM14 0l551 1434h260l551 -1434h-286l-117 317h-555l-117 -317h-287z" />
    <glyph glyph-name="B" unicode="B" horiz-adv-x="1290" 
d="M135 0v1434h563q202 0 326.5 -97.5t124.5 -271.5q0 -95 -51 -170.5t-123 -112.5q109 -41 176.5 -131t67.5 -225q0 -199 -136.5 -312.5t-363.5 -113.5h-584zM414 242h276q264 0 264 196q0 201 -264 201h-276v-397zM414 874h264q104 0 157.5 43.5t53.5 124.5
q0 168 -215 168h-260v-336z" />
    <glyph glyph-name="C" unicode="C" horiz-adv-x="1495" 
d="M784 -16q-115 0 -219.5 29t-194.5 89.5t-156.5 146.5t-104 206t-37.5 262q0 176 58.5 318t158 231t226.5 136.5t269 47.5q257 0 428.5 -129.5t208.5 -347.5l-276 -58q-28 136 -125.5 215.5t-235.5 79.5q-189 0 -309.5 -129.5t-120.5 -363.5t120 -363t310 -129
q139 0 232 72t121 199l280 -62q-53 -211 -219.5 -330.5t-413.5 -119.5z" />
    <glyph glyph-name="D" unicode="D" horiz-adv-x="1411" 
d="M135 0v1434h469q151 0 282 -45.5t233 -132t161 -225.5t59 -314t-59 -314t-161 -225.5t-233 -132t-282 -45.5h-469zM410 242h170q76 0 144 15.5t130 51.5t106.5 89.5t70.5 135t26 183.5q0 126 -39.5 221t-107.5 149.5t-151 80.5t-179 26h-170v-952z" />
    <glyph glyph-name="E" unicode="E" horiz-adv-x="1187" 
d="M135 0v1434h959v-240h-680v-315h544v-242h-544v-395h702v-242h-981z" />
    <glyph glyph-name="F" unicode="F" horiz-adv-x="1167" 
d="M135 0v1434h971v-240h-692v-332h559v-241h-559v-621h-279z" />
    <glyph glyph-name="G" unicode="G" horiz-adv-x="1540" 
d="M774 -16q-111 0 -213.5 29t-191.5 89t-155 145.5t-104 206t-38 263.5t39 263.5t107 206t159.5 145.5t196.5 89t219 29q258 0 430 -127t213 -350l-275 -58q-26 135 -126 215t-244 80q-196 0 -317.5 -131.5t-121.5 -361.5t120.5 -361t313.5 -131q161 0 263.5 87.5
t113.5 228.5h-426v225h684v-766h-252v174q-47 -87 -155 -138.5t-240 -51.5z" />
    <glyph glyph-name="H" unicode="H" horiz-adv-x="1456" 
d="M1042 1434h279v-1434h-279v625h-628v-625h-279v1434h279v-570h628v570z" />
    <glyph glyph-name="I" unicode="I" horiz-adv-x="548" 
d="M135 0v1434h279v-1434h-279z" />
    <glyph glyph-name="J" unicode="J" horiz-adv-x="741" 
d="M51 246q50 -13 96 -13q96 0 143.5 48.5t47.5 158.5v994h266v-1000q0 -220 -107 -332t-292 -112q-84 0 -154 16v240z" />
    <glyph glyph-name="K" unicode="K" horiz-adv-x="1376" 
d="M414 0h-279v1434h279v-568l534 568h367l-553 -574l604 -860h-348l-447 659l-157 -161v-498z" />
    <glyph glyph-name="L" unicode="L" horiz-adv-x="1103" 
d="M135 0v1434h279v-1192h665v-242h-944z" />
    <glyph glyph-name="M" unicode="M" horiz-adv-x="1773" 
d="M135 0v1434h314l438 -1039l438 1039h313v-1434h-262v915l-385 -915h-209l-385 915v-915h-262z" />
    <glyph glyph-name="N" unicode="N" horiz-adv-x="1429" 
d="M135 0v1434h283l614 -996v996h260v-1434h-282l-613 993v-993h-262z" />
    <glyph glyph-name="O" unicode="O" horiz-adv-x="1595" 
d="M799 -16q-155 0 -290.5 55.5t-231 152t-150.5 232.5t-55 293t55 293t150.5 232.5t231 152t290.5 55.5t289.5 -55.5t230 -152t150.5 -232.5t55 -293t-55 -293t-150.5 -232.5t-230 -152t-289.5 -55.5zM352 717q0 -214 126 -353t321 -139t319.5 139t124.5 353t-125 353.5
t-319 139.5q-195 0 -321 -139.5t-126 -353.5z" />
    <glyph glyph-name="P" unicode="P" horiz-adv-x="1232" 
d="M137 0v1434h578q218 0 347.5 -119.5t129.5 -319.5q0 -198 -129.5 -317t-347.5 -119h-299v-559h-279zM416 799h274q104 0 163.5 52t59.5 144q0 94 -59.5 146.5t-163.5 52.5h-274v-395z" />
    <glyph glyph-name="Q" unicode="Q" horiz-adv-x="1599" 
d="M723 526l176 156l252 -276q92 131 92 311q0 214 -125 353.5t-319 139.5q-195 0 -321 -139.5t-126 -353.5t126 -353t321 -139q88 0 172 33zM72 717q0 157 55 293t150.5 232.5t231 152t290.5 55.5t289.5 -55.5t230 -152t150.5 -232.5t55 -293q0 -151 -49.5 -281.5
t-141.5 -228.5l164 -178l-172 -152l-176 191q-156 -84 -350 -84q-155 0 -290.5 55.5t-231 152t-150.5 232.5t-55 293z" />
    <glyph glyph-name="R" unicode="R" horiz-adv-x="1331" 
d="M137 0l-2 1434h553q211 0 337 -115.5t126 -308.5q0 -121 -59.5 -218.5t-165.5 -150.5l381 -641h-326l-338 588h-227v-588h-279zM416 827h229q107 0 166 48.5t59 134.5q0 87 -59 135.5t-166 48.5h-229v-367z" />
    <glyph glyph-name="S" unicode="S" horiz-adv-x="1210" 
d="M606 -16q-140 0 -260.5 58t-198 161t-94.5 231l248 76q17 -128 105.5 -208.5t209.5 -80.5q113 0 180.5 49t67.5 131q0 49 -26 86.5t-70 61.5t-101 43.5t-120 38t-126 40t-120 54t-101 75t-70 108.5t-26 149q0 113 65 203t179 140t254 50q204 0 351.5 -100t181.5 -263
l-250 -102q-22 105 -97 166t-186 61q-103 0 -162 -41.5t-59 -113.5q0 -41 26 -71t70.5 -49t102 -34.5t121 -32t127 -37.5t121 -56t102 -82t70.5 -120.5t26 -166.5q0 -190 -149 -307t-392 -117z" />
    <glyph glyph-name="T" unicode="T" horiz-adv-x="1206" 
d="M465 0v1194h-432v240h1143v-240h-433v-1194h-278z" />
    <glyph glyph-name="U" unicode="U" horiz-adv-x="1400" 
d="M700 -16q-259 0 -412 139t-153 397v914h262v-916q0 -142 82.5 -216.5t220.5 -74.5q140 0 223 74.5t83 216.5v916h260v-914q0 -258 -153.5 -397t-412.5 -139z" />
    <glyph glyph-name="V" unicode="V" horiz-adv-x="1341" 
d="M537 0l-523 1434h285l371 -1102l374 1102h283l-522 -1434h-268z" />
    <glyph glyph-name="W" unicode="W" horiz-adv-x="2066" 
d="M449 0l-418 1434h286l277 -1102l280 1102h316l283 -1102l276 1102h287l-414 -1434h-295l-293 1051l-295 -1051h-290z" />
    <glyph glyph-name="X" unicode="X" horiz-adv-x="1273" 
d="M18 0l474 768l-410 666h293l262 -426l262 426h295l-410 -668l471 -766h-292l-324 528l-326 -528h-295z" />
    <glyph glyph-name="Y" unicode="Y" horiz-adv-x="1271" 
d="M496 0v594l-492 840h299l332 -578l334 578h299l-494 -840v-594h-278z" />
    <glyph glyph-name="Z" unicode="Z" horiz-adv-x="1232" 
d="M53 0v225l781 969h-742v240h1061v-226l-770 -966h774v-242h-1104z" />
    <glyph glyph-name="bracketleft" unicode="[" horiz-adv-x="651" 
d="M135 -326v1968h463v-208h-233v-1551h233v-209h-463z" />
    <glyph glyph-name="backslash" unicode="\" horiz-adv-x="937" 
d="M926 -2h-269l-645 1436h271z" />
    <glyph glyph-name="bracketright" unicode="]" horiz-adv-x="651" 
d="M516 -326h-463v209h234v1551h-234v208h463v-1968z" />
    <glyph glyph-name="asciicircum" unicode="^" horiz-adv-x="1191" 
d="M76 846l416 588h210l416 -588h-258l-264 368l-264 -368h-256z" />
    <glyph glyph-name="underscore" unicode="_" horiz-adv-x="1024" 
d="M45 -221v221h934v-221h-934z" />
    <glyph glyph-name="grave" unicode="`" horiz-adv-x="632" 
d="M508 1147h-182l-246 303h299z" />
    <glyph glyph-name="a" unicode="a" horiz-adv-x="1103" 
d="M727 664q0 87 -55.5 137.5t-149.5 50.5q-85 0 -140.5 -48.5t-64.5 -131.5l-229 41q24 152 145.5 244t288.5 92q207 0 331 -109.5t124 -310.5v-629h-250v150q-43 -75 -128 -120.5t-181 -45.5q-151 0 -247.5 87t-96.5 220q0 151 114.5 235t346.5 109l192 18v11zM324 299
q0 -55 41 -90t110 -35q117 0 184.5 77t67.5 195v23l-197 -23q-100 -12 -153 -51t-53 -96z" />
    <glyph glyph-name="b" unicode="b" horiz-adv-x="1239" 
d="M678 -16q-97 0 -177 36.5t-118 98.5v-119h-258v1450h258v-532q45 60 124.5 95.5t174.5 35.5q226 0 356.5 -146.5t130.5 -386.5t-131 -386t-360 -146zM367 516q0 -140 75 -224.5t199 -84.5q123 0 197.5 84.5t74.5 224.5t-74.5 224.5t-197.5 84.5q-124 0 -199 -84.5
t-75 -224.5z" />
    <glyph glyph-name="c" unicode="c" horiz-adv-x="1148" 
d="M594 -16q-232 0 -378 148t-146 384t146 384.5t378 148.5q198 0 328.5 -96.5t156.5 -260.5l-252 -49q-14 82 -74.5 132t-150.5 50q-120 0 -192 -84t-72 -225t72 -225t192 -84q90 0 148 46t77 130l252 -51q-29 -162 -159 -255t-326 -93z" />
    <glyph glyph-name="d" unicode="d" horiz-adv-x="1239" 
d="M561 -16q-229 0 -360 146t-131 386t130.5 386.5t356.5 146.5q95 0 174.5 -35.5t124.5 -95.5v532h258v-1450h-258v119q-38 -62 -118 -98.5t-177 -36.5zM326 516q0 -140 74.5 -224.5t197.5 -84.5q124 0 199 84.5t75 224.5t-75 224.5t-199 84.5q-123 0 -197.5 -84.5
t-74.5 -224.5z" />
    <glyph glyph-name="e" unicode="e" horiz-adv-x="1167" 
d="M70 516q0 82 20 158.5t61.5 145t101 119.5t143.5 80.5t184 29.5q125 0 226.5 -43.5t163.5 -115.5t95 -159.5t33 -179.5q0 -62 -4 -102h-766q17 -117 88.5 -182.5t181.5 -65.5q91 0 152 41t81 116l242 -65q-43 -146 -170 -227.5t-309 -81.5q-100 0 -185.5 29.5t-147 80.5
t-105 119t-65 145t-21.5 158zM334 637h487q-9 97 -71 156t-170 59q-96 0 -160 -55.5t-86 -159.5z" />
    <glyph glyph-name="f" unicode="f" horiz-adv-x="780" 
d="M215 0v815h-166v217h166v80q0 177 101.5 275t263.5 98q74 0 155 -23l-18 -213q-53 21 -103 21q-64 0 -102.5 -43t-38.5 -115v-80h246v-217h-246v-815h-258z" />
    <glyph glyph-name="g" unicode="g" horiz-adv-x="1218" 
d="M551 31q-224 0 -352.5 139t-128.5 369q0 231 127.5 370.5t347.5 139.5q93 0 170 -33t121 -88v104h256v-966q0 -204 -141 -329.5t-371 -125.5q-183 0 -314 88.5t-157 232.5l239 39q9 -70 74 -111.5t158 -41.5q117 0 187.5 60.5t70.5 160.5v113q-38 -55 -116 -88t-171 -33z
M326 539q0 -129 71.5 -207t190.5 -78q120 0 192 78t72 207q0 130 -72 208t-192 78q-119 0 -190.5 -78t-71.5 -208z" />
    <glyph glyph-name="h" unicode="h" horiz-adv-x="1220" 
d="M125 0v1450h258v-578q51 85 136 131t192 46q173 0 279 -102t106 -271v-676h-258v612q0 95 -55 151t-150 56q-120 0 -185 -97.5t-65 -272.5v-449h-258z" />
    <glyph glyph-name="i" unicode="i" horiz-adv-x="507" 
d="M125 0v1032h258v-1032h-258zM94 1350q0 66 45.5 111.5t114.5 45.5q70 0 117 -45.5t47 -111.5q0 -68 -47 -114t-117 -46q-69 0 -114.5 46t-45.5 114z" />
    <glyph glyph-name="j" unicode="j" horiz-adv-x="516" 
d="M16 -389l-65 4l-6 223q23 -2 41 -2q75 0 113 49t38 140v1007h258v-1042q0 -172 -103.5 -275.5t-275.5 -103.5zM109 1350q0 66 45.5 111.5t113.5 45.5q70 0 117 -45.5t47 -111.5q0 -68 -47 -114t-117 -46q-69 0 -114 46t-45 114z" />
    <glyph glyph-name="k" unicode="k" horiz-adv-x="1148" 
d="M385 0h-260v1450h260v-784l389 366h328l-420 -407l453 -625h-312l-317 455l-121 -119v-336z" />
    <glyph glyph-name="l" unicode="l" horiz-adv-x="507" 
d="M125 0v1450h258v-1450h-258z" />
    <glyph glyph-name="m" unicode="m" horiz-adv-x="1837" 
d="M125 0v1032h258v-158q98 175 297 175q122 0 203.5 -50t117.5 -145q44 84 134.5 139.5t207.5 55.5q166 0 267.5 -97.5t101.5 -251.5v-700h-258v629q0 93 -49 146.5t-139 53.5q-103 0 -161 -82.5t-58 -220.5v-526h-259v629q0 93 -48 146.5t-136 53.5q-104 0 -162.5 -83
t-58.5 -222v-524h-258z" />
    <glyph glyph-name="n" unicode="n" horiz-adv-x="1212" 
d="M125 0v1032h258v-155q52 78 137.5 125t190.5 47q169 0 272.5 -102.5t103.5 -270.5v-676h-258v614q0 92 -53 148.5t-143 56.5q-118 0 -184 -96.5t-66 -269.5v-453h-258z" />
    <glyph glyph-name="o" unicode="o" horiz-adv-x="1216" 
d="M608 -16q-234 0 -386 150.5t-152 381.5t152 382t386 151t386.5 -151t152.5 -382t-152.5 -381.5t-386.5 -150.5zM330 516q0 -138 76 -223.5t202 -85.5q125 0 202 85.5t77 223.5t-77 223.5t-202 85.5q-126 0 -202 -85.5t-76 -223.5z" />
    <glyph glyph-name="p" unicode="p" horiz-adv-x="1239" 
d="M125 -373v1405h258v-119q44 62 125.5 99t181.5 37q220 0 349.5 -147t129.5 -386q0 -238 -135.5 -385t-361.5 -147q-90 0 -167.5 31.5t-121.5 86.5v-475h-258zM367 516q0 -140 75 -224.5t199 -84.5q123 0 197.5 84.5t74.5 224.5t-74.5 224.5t-197.5 84.5
q-124 0 -199 -84.5t-75 -224.5z" />
    <glyph glyph-name="q" unicode="q" horiz-adv-x="1239" 
d="M1114 -373h-258v475q-44 -55 -121.5 -86.5t-167.5 -31.5q-226 0 -361.5 147t-135.5 385q0 239 129.5 386t349.5 147q100 0 181.5 -37t125.5 -99v119h258v-1405zM326 516q0 -140 74.5 -224.5t197.5 -84.5q124 0 199 84.5t75 224.5t-75 224.5t-199 84.5
q-123 0 -197.5 -84.5t-74.5 -224.5z" />
    <glyph glyph-name="r" unicode="r" horiz-adv-x="831" 
d="M791 782q-58 25 -132 25q-119 0 -197.5 -106t-78.5 -322v-379h-258v1032h258v-188q38 88 127.5 146.5t183.5 58.5q60 0 113 -17z" />
    <glyph glyph-name="s" unicode="s" horiz-adv-x="944" 
d="M485 -16q-90 0 -168 26t-132.5 70t-92 97t-57.5 112l211 86q25 -84 86 -137.5t153 -53.5q71 0 115.5 33.5t44.5 83.5q0 35 -24 60t-64 39t-90.5 29t-103 28t-103 37.5t-90.5 56t-64 85.5t-24 124q0 124 101 206.5t266 82.5q151 0 266 -70t149 -182l-209 -88
q-21 70 -78 109.5t-124 39.5q-62 0 -100 -25t-38 -69q0 -32 24.5 -54.5t64.5 -34.5t91 -25t104 -25t104 -37t91 -58.5t64.5 -91t24.5 -133.5q0 -136 -111 -228.5t-287 -92.5z" />
    <glyph glyph-name="t" unicode="t" horiz-adv-x="790" 
d="M737 10q-74 -26 -166 -26q-164 0 -264 89.5t-100 264.5v477h-174v217h174v303h258v-303h260v-217h-260v-453q0 -72 36 -111.5t97 -39.5q70 0 121 25z" />
    <glyph glyph-name="u" unicode="u" horiz-adv-x="1212" 
d="M1087 1032v-1032h-258v156q-52 -78 -137 -125t-190 -47q-169 0 -273 102t-104 270v676h258v-614q0 -92 53.5 -148.5t143.5 -56.5q118 0 183.5 96.5t65.5 270.5v452h258z" />
    <glyph glyph-name="v" unicode="v" horiz-adv-x="1026" 
d="M393 0l-377 1032h260l236 -733l236 733h262l-377 -1032h-240z" />
    <glyph glyph-name="w" unicode="w" 
d="M367 0l-322 1032h260l178 -672l207 672h236l207 -672l176 672h260l-320 -1032h-231l-209 674l-213 -674h-229z" />
    <glyph glyph-name="x" unicode="x" horiz-adv-x="1050" 
d="M731 0l-205 311l-207 -311h-282l348 522l-338 510h279l200 -299l199 299h279l-338 -510l348 -522h-283z" />
    <glyph glyph-name="y" unicode="y" horiz-adv-x="1081" 
d="M801 1032h264l-545 -1405h-262l160 414l-402 991h281l248 -663z" />
    <glyph glyph-name="z" unicode="z" horiz-adv-x="1013" 
d="M63 0v197l560 618h-525v217h840v-196l-555 -619h567v-217h-887z" />
    <glyph glyph-name="braceleft" unicode="{" horiz-adv-x="692" 
d="M526 -311q-114 0 -187 76.5t-73 193.5v428q0 92 -43 133t-133 41v221q90 0 133 40t43 132v430q0 117 73 193t187 76h127v-213h-45q-112 0 -112 -117v-426q0 -96 -42 -145.5t-122 -79.5q81 -32 122.5 -81.5t41.5 -146.5v-426q0 -116 112 -116h45v-213h-127z" />
    <glyph glyph-name="bar" unicode="|" horiz-adv-x="552" 
d="M137 -102v1638h279v-1638h-279z" />
    <glyph glyph-name="braceright" unicode="}" horiz-adv-x="692" 
d="M166 -311h-127v213h45q113 0 113 116v426q0 98 41 147t122 81q-80 30 -121.5 79.5t-41.5 145.5v426q0 117 -113 117h-45v213h127q114 0 187 -76t73 -193v-430q0 -92 43 -132t133 -40v-221q-90 0 -133 -41t-43 -133v-428q0 -117 -73 -193.5t-187 -76.5z" />
    <glyph glyph-name="asciitilde" unicode="~" horiz-adv-x="1224" 
d="M809 489q-116 0 -229 74q-6 4 -24 16.5t-24.5 16.5t-21 13t-23 12t-21 8t-24 6.5t-24.5 1.5q-103 0 -127 -145l-213 32q9 154 102 247t238 93q118 0 227 -73q9 -6 29 -19.5t28 -18.5t24 -14t27 -12.5t26 -6.5t30 -3q48 0 81.5 37t43.5 108l215 -33q-10 -154 -103.5 -247
t-236.5 -93z" />
    <glyph glyph-name="uni00A0" unicode="&#xa0;" horiz-adv-x="491" 
 />
    <glyph glyph-name="exclamdown" unicode="&#xa1;" horiz-adv-x="600" 
d="M201 555h200l58 -973h-318zM139 874q0 67 46 112.5t114 45.5q69 0 114.5 -45t45.5 -113t-45.5 -112.5t-114.5 -44.5q-68 0 -114 45t-46 112z" />
    <glyph glyph-name="cent" unicode="&#xa2;" horiz-adv-x="1148" 
d="M487 -217v209q-190 34 -303.5 175t-113.5 349t113.5 349t303.5 175v211h228v-213q150 -28 246 -118.5t118 -227.5l-252 -49q-14 82 -74.5 132t-150.5 50q-120 0 -192 -84t-72 -225t72 -225t192 -84q90 0 148 46t77 130l252 -51q-25 -136 -120 -224t-244 -114v-213z" />
    <glyph glyph-name="sterling" unicode="&#xa3;" horiz-adv-x="1236" 
d="M141 225q166 153 166 346q0 13 -4 41h-233v217h151q-45 106 -45 189q0 199 128 315.5t343 116.5q186 0 312.5 -92t152.5 -246l-256 -72q-39 170 -209 170q-88 0 -142 -54.5t-54 -149.5q0 -85 47 -177h444v-217h-358q2 -12 2 -41q0 -88 -41.5 -182t-102.5 -147h351
q111 0 184 143l227 -127q-66 -129 -151 -193.5t-199 -64.5h-713v225z" />
    <glyph glyph-name="currency" unicode="&#xa4;" horiz-adv-x="1341" 
d="M1108 -84l-145 145q-129 -77 -293 -77t-293 77l-144 -145l-163 160l145 143q-84 133 -84 297q0 165 82 295l-143 143l161 162l146 -145q131 78 293 78q161 0 295 -78l145 145l160 -162l-144 -145q82 -127 82 -293q0 -162 -82 -297l144 -143zM391 516q0 -138 76.5 -223.5
t202.5 -85.5q124 0 201 85.5t77 223.5t-77 223.5t-201 85.5q-126 0 -202.5 -85.5t-76.5 -223.5z" />
    <glyph glyph-name="yen" unicode="&#xa5;" horiz-adv-x="1271" 
d="M129 592v178h264l-389 664h299l332 -578l334 578h299l-389 -664h266v-178h-371v-158h371v-180h-371v-254h-278v254h-367v180h367v158h-367z" />
    <glyph glyph-name="brokenbar" unicode="&#xa6;" horiz-adv-x="552" 
d="M137 821v715h279v-715h-279zM137 -102v714h279v-714h-279z" />
    <glyph glyph-name="section" unicode="&#xa7;" horiz-adv-x="1210" 
d="M614 -389q-199 0 -345.5 119.5t-174.5 298.5l217 65q19 -118 102.5 -190t200.5 -72q115 0 185.5 46.5t70.5 123.5q0 53 -39.5 90t-102.5 59t-139 42t-152 48.5t-139 69t-102.5 113.5t-39.5 172q0 129 120 217q-120 95 -120 268q0 160 128.5 264.5t325.5 104.5
q185 0 323 -96t159 -260l-224 -54q-15 88 -85 140.5t-173 52.5q-97 0 -158 -41.5t-61 -108.5q0 -50 31 -86.5t82 -56.5t116.5 -40t133 -36.5t133 -46.5t116.5 -69t82 -106t31 -155q0 -136 -110 -225q110 -95 110 -260q0 -176 -139 -283.5t-363 -107.5zM391 600
q0 -38 18 -67.5t44.5 -48.5t72 -36.5t83.5 -28t98 -26.5t98 -28q65 50 65 122q0 35 -17.5 63t-44 46t-70.5 35t-83 28t-97 27.5t-97 30.5q-70 -48 -70 -117z" />
    <glyph glyph-name="dieresis" unicode="&#xa8;" horiz-adv-x="888" 
d="M244 1176q-60 0 -101 41.5t-41 101.5q0 59 41 100t101 41q63 0 105 -41t42 -100q0 -60 -42 -101.5t-105 -41.5zM498 1319q0 59 41 100t102 41t103 -41t42 -100q0 -60 -42 -101.5t-103 -41.5t-102 41.5t-41 101.5z" />
    <glyph glyph-name="copyright" unicode="&#xa9;" 
d="M817 330q-175 0 -283 108t-108 285q0 178 108.5 287.5t282.5 109.5q142 0 237.5 -73t112.5 -197l-168 -35q-10 73 -59.5 115.5t-124.5 42.5q-100 0 -159.5 -67.5t-59.5 -182.5q0 -114 59 -181t160 -67q73 0 121.5 39.5t60.5 108.5l168 -37q-28 -120 -120 -188t-228 -68z
M72 717q0 156 55.5 292t152.5 233t233 152.5t292 55.5t292.5 -55.5t233.5 -152.5t153 -233t56 -292t-56 -292t-153 -233t-233.5 -152.5t-292.5 -55.5t-292 55.5t-233 152.5t-152.5 233t-55.5 292zM217 717q0 -255 167.5 -424.5t420.5 -169.5q126 0 235.5 45.5t187.5 124
t122.5 188.5t44.5 236t-44.5 236t-122.5 188.5t-187.5 124t-235.5 45.5q-253 0 -420.5 -169.5t-167.5 -424.5z" />
    <glyph glyph-name="ordfeminine" unicode="&#xaa;" horiz-adv-x="686" 
d="M453 1206q0 55 -34 87t-93 32q-52 0 -86.5 -31t-40.5 -84l-148 27q15 96 92 154.5t183 58.5q132 0 210 -69t78 -197v-398h-161v91q-26 -46 -79.5 -73.5t-113.5 -27.5q-96 0 -157.5 55.5t-61.5 139.5q0 187 291 217l121 12v6zM201 975q0 -33 26.5 -54.5t69.5 -21.5
q70 0 112 45t44 113v10v-4v4v12l-123 -12q-62 -7 -95.5 -31.5t-33.5 -60.5z" />
    <glyph glyph-name="guillemotleft" unicode="&#xab;" horiz-adv-x="1255" 
d="M641 109l-575 442v151l575 443v-260l-340 -258l340 -258v-260zM602 551v151l576 443v-260l-340 -258l340 -258v-260z" />
    <glyph glyph-name="logicalnot" unicode="&#xac;" horiz-adv-x="1216" 
d="M850 270v346h-758v224h1016v-570h-258z" />
    <glyph glyph-name="uni00AD" unicode="&#xad;" horiz-adv-x="770" 
d="M55 481v221h660v-221h-660z" />
    <glyph glyph-name="registered" unicode="&#xae;" 
d="M1159 358h-178l-180 310h-115v-310h-151l-3 762h295q112 0 180 -62t68 -165q0 -64 -32 -115t-89 -80zM72 717q0 156 55.5 292t152.5 233t233 152.5t292 55.5t292.5 -55.5t233.5 -152.5t153 -233t56 -292t-56 -292t-153 -233t-233.5 -152.5t-292.5 -55.5t-292 55.5
t-233 152.5t-152.5 233t-55.5 292zM217 717q0 -255 167.5 -424.5t420.5 -169.5q126 0 235.5 45.5t187.5 124t122.5 188.5t44.5 236t-44.5 236t-122.5 188.5t-187.5 124t-235.5 45.5q-253 0 -420.5 -169.5t-167.5 -424.5zM686 803h119q55 0 85 23.5t30 66.5q0 44 -30 68
t-85 24h-119v-182z" />
    <glyph glyph-name="macron" unicode="&#xaf;" horiz-adv-x="774" 
d="M102 1196v199h570v-199h-570z" />
    <glyph glyph-name="degree" unicode="&#xb0;" horiz-adv-x="722" 
d="M360 895q-122 2 -205 83.5t-83 199.5q0 120 83 201t205 81q123 0 207 -81t84 -201q0 -118 -84 -199.5t-207 -83.5zM242 1178q0 -54 33 -88.5t85 -34.5t85.5 34.5t33.5 88.5t-33 88t-86 34q-52 0 -85 -34t-33 -88z" />
    <glyph glyph-name="plusminus" unicode="&#xb1;" horiz-adv-x="1140" 
d="M1075 956v-221h-395v-393h-219v393h-395v221h393v394h221v-394h395zM74 0v221h993v-221h-993z" />
    <glyph glyph-name="uni00B2" unicode="&#xb2;" horiz-adv-x="694" 
d="M61 768l-2 145l244 203q71 58 106 104.5t35 88.5q0 43 -28 69.5t-74 26.5q-55 0 -85 -42.5t-24 -113.5l-178 13q-12 126 73 214.5t214 88.5q130 0 210.5 -71.5t80.5 -184.5q0 -152 -199 -295l-112 -86h311v-160h-572z" />
    <glyph glyph-name="uni00B3" unicode="&#xb3;" horiz-adv-x="706" 
d="M348 760q-125 0 -208 64t-95 171l170 27q11 -46 48.5 -74t88.5 -28q54 0 86.5 29.5t32.5 78.5q0 51 -32 80t-85 29q-52 0 -92 -27l-72 125l191 162h-313l2 159h532v-159l-184 -144q108 2 174.5 -60.5t66.5 -168.5q0 -120 -85.5 -192t-225.5 -72z" />
    <glyph glyph-name="acute" unicode="&#xb4;" horiz-adv-x="632" 
d="M102 1147l129 303h299l-245 -303h-183z" />
    <glyph glyph-name="uni00B5" unicode="&#xb5;" horiz-adv-x="1191" 
d="M115 -389v1421h258v-614q0 -92 53 -148.5t143 -56.5q120 0 185 96.5t65 270.5v452h258v-1032h-258v156q-33 -77 -107.5 -124.5t-168.5 -47.5q-92 0 -170 63v-436h-258z" />
    <glyph glyph-name="paragraph" unicode="&#xb6;" horiz-adv-x="1482" 
d="M543 549q-192 0 -326.5 129t-134.5 313q0 183 134.5 313t326.5 130h850v-226h-136v-1581h-229v1581h-254v-1581h-231v922z" />
    <glyph glyph-name="periodcentered" unicode="&#xb7;" horiz-adv-x="565" 
d="M285 590q-68 0 -114 45.5t-46 112.5t46 112t114 45q69 0 114 -44.5t45 -112.5t-45 -113t-114 -45z" />
    <glyph glyph-name="cedilla" unicode="&#xb8;" horiz-adv-x="636" 
d="M535 0l-132 -303h-301l299 369z" />
    <glyph glyph-name="uni00B9" unicode="&#xb9;" horiz-adv-x="471" 
d="M221 1362q-97 -64 -172 -80v168q90 21 205 106h141v-788h-174v594z" />
    <glyph glyph-name="ordmasculine" unicode="&#xba;" horiz-adv-x="765" 
d="M383 776q-149 0 -245.5 95t-96.5 243q0 146 96.5 241t245.5 95t245.5 -95t96.5 -241q0 -148 -96.5 -243t-245.5 -95zM209 1114q0 -88 48 -141t126 -53t126 53t48 141q0 85 -48 139t-126 54t-126 -54t-48 -139z" />
    <glyph glyph-name="guillemotright" unicode="&#xbb;" horiz-adv-x="1296" 
d="M78 109v260l340 258l-340 258v260l575 -443v-151zM655 109v260l340 258l-340 258v260l576 -443v-151z" />
    <glyph glyph-name="onequarter" unicode="&#xbc;" horiz-adv-x="1583" 
d="M1260 0v143h-390v162l379 483h199v-483h92v-162h-92v-143h-188zM49 1159v168q88 21 205 107h141v-789h-174v594q-97 -64 -172 -80zM184 0l959 1434h209l-959 -1434h-209zM1061 305h199v254z" />
    <glyph glyph-name="onehalf" unicode="&#xbd;" horiz-adv-x="1638" 
d="M221 1239q-97 -64 -172 -80v168q88 21 205 107h141v-789h-174v594zM162 0l958 1434h209l-958 -1434h-209zM999 494q-12 126 73 214.5t214 88.5q130 0 210.5 -71.5t80.5 -184.5q0 -152 -199 -295l-112 -86h311v-160h-571l-2 145l243 203q72 59 107 105t35 88
q0 43 -28.5 69.5t-74.5 26.5q-55 0 -84.5 -42.5t-23.5 -113.5z" />
    <glyph glyph-name="threequarters" unicode="&#xbe;" horiz-adv-x="1714" 
d="M348 637q-125 0 -208 64t-95 171l170 27q11 -46 48.5 -74t88.5 -28q54 0 86.5 29.5t32.5 78.5q0 51 -32 80t-85 29q-52 0 -92 -27l-72 125l191 162h-313l2 160h532v-160l-184 -144q108 2 174.5 -60.5t66.5 -168.5q0 -120 -85.5 -192t-225.5 -72zM305 0l959 1434h209
l-959 -1434h-209zM1001 143v162l379 483h199v-483h92v-162h-92v-143h-188v143h-390zM1192 305h199v254z" />
    <glyph glyph-name="questiondown" unicode="&#xbf;" horiz-adv-x="946" 
d="M629 573q6 -75 -12 -135t-51.5 -100t-75 -73t-84.5 -61.5t-79 -58.5t-58.5 -72t-22.5 -93q0 -85 56.5 -138t148.5 -53q112 0 174 69t53 185l246 -25q8 -204 -122 -328t-351 -124q-214 0 -344 112.5t-130 298.5q0 76 23 137.5t59 101t80 72.5t87 61.5t78.5 58t56 71.5
t18.5 94h250zM336 874q0 68 45.5 113t114.5 45q68 0 113.5 -45.5t45.5 -112.5t-45.5 -112t-113.5 -45q-69 0 -114.5 44.5t-45.5 112.5z" />
    <glyph glyph-name="Agrave" unicode="&#xc0;" horiz-adv-x="1390" 
d="M696 1069l-190 -516h381zM14 0l551 1434h260l551 -1434h-286l-117 317h-555l-117 -317h-287zM362 1851h300l129 -303h-183z" />
    <glyph glyph-name="Aacute" unicode="&#xc1;" horiz-adv-x="1390" 
d="M696 1069l-190 -516h381zM14 0l551 1434h260l551 -1434h-286l-117 317h-555l-117 -317h-287zM573 1548l129 303h299l-245 -303h-183z" />
    <glyph glyph-name="Acircumflex" unicode="&#xc2;" horiz-adv-x="1390" 
d="M696 1069l-190 -516h381zM14 0l551 1434h260l551 -1434h-286l-117 317h-555l-117 -317h-287zM350 1548l234 303h219l233 -303h-188l-154 158l-155 -158h-189z" />
    <glyph glyph-name="Atilde" unicode="&#xc3;" horiz-adv-x="1390" 
d="M696 1069l-190 -516h381zM14 0l551 1434h260l551 -1434h-286l-117 317h-555l-117 -317h-287zM297 1595q3 117 75 190t183 73q90 0 172 -56q5 -3 21 -13t20.5 -13t16.5 -9t19 -8t17 -4t21 -2q69 0 78 105l180 -27q-4 -118 -75.5 -191t-182.5 -73q-90 0 -172 55
q-4 3 -16 11t-16 10.5t-13.5 8.5t-14 7.5t-12.5 5t-14 5t-13.5 2.5t-15.5 1q-67 0 -82 -104z" />
    <glyph glyph-name="Adieresis" unicode="&#xc4;" horiz-adv-x="1390" 
d="M696 1069l-190 -516h381zM14 0l551 1434h260l551 -1434h-286l-117 317h-555l-117 -317h-287zM354 1720q0 59 41 100.5t101 41.5q62 0 104.5 -41.5t42.5 -100.5q0 -60 -42 -101.5t-105 -41.5q-60 0 -101 41.5t-41 101.5zM750 1720q0 59 41 100.5t102 41.5t103 -41.5
t42 -100.5q0 -60 -42 -101.5t-103 -41.5t-102 41.5t-41 101.5z" />
    <glyph glyph-name="Aring" unicode="&#xc5;" horiz-adv-x="1390" 
d="M696 1069l-190 -516h381zM14 0l551 1434h260l551 -1434h-286l-117 317h-555l-117 -317h-287zM459 1733q0 97 67 161t170 64q104 0 172 -64t68 -161q0 -96 -68 -160t-172 -64q-102 0 -169.5 64t-67.5 160zM600 1733q0 -41 27 -67t69 -26q43 0 71 26t28 67t-28 67.5
t-71 26.5q-41 0 -68.5 -26.5t-27.5 -67.5z" />
    <glyph glyph-name="AE" unicode="&#xc6;" horiz-adv-x="2011" 
d="M317 0h-305l770 1434h1133v-240h-680v-315h545v-242h-545v-395h702v-242h-981v332h-464zM618 573h338v646z" />
    <glyph glyph-name="Ccedilla" unicode="&#xc7;" horiz-adv-x="1495" 
d="M72 717q0 176 58.5 318t158 231t226.5 136.5t269 47.5q257 0 428.5 -129.5t208.5 -347.5l-276 -58q-28 136 -125.5 215.5t-235.5 79.5q-189 0 -309.5 -129.5t-120.5 -363.5t120 -363t310 -129q139 0 232 72t121 199l280 -62q-47 -193 -192.5 -310t-362.5 -136l-125 -291
h-301l238 293q-126 17 -233.5 71.5t-190.5 143.5t-130.5 220.5t-47.5 291.5z" />
    <glyph glyph-name="Egrave" unicode="&#xc8;" horiz-adv-x="1187" 
d="M135 0v1434h959v-240h-680v-315h544v-242h-544v-395h702v-242h-981zM295 1851h299l129 -303h-182z" />
    <glyph glyph-name="Eacute" unicode="&#xc9;" horiz-adv-x="1187" 
d="M135 0v1434h959v-240h-680v-315h544v-242h-544v-395h702v-242h-981zM506 1548l129 303h299l-246 -303h-182z" />
    <glyph glyph-name="Ecircumflex" unicode="&#xca;" horiz-adv-x="1187" 
d="M135 0v1434h959v-240h-680v-315h544v-242h-544v-395h702v-242h-981zM283 1548l233 303h219l234 -303h-189l-153 158l-156 -158h-188z" />
    <glyph glyph-name="Edieresis" unicode="&#xcb;" horiz-adv-x="1187" 
d="M135 0v1434h959v-240h-680v-315h544v-242h-544v-395h702v-242h-981zM287 1720q0 59 40.5 100.5t100.5 41.5q62 0 104.5 -41.5t42.5 -100.5q0 -60 -42 -101.5t-105 -41.5q-60 0 -100.5 41.5t-40.5 101.5zM682 1720q0 59 41 100.5t102 41.5t103.5 -41.5t42.5 -100.5
q0 -60 -42.5 -101.5t-103.5 -41.5t-102 41.5t-41 101.5z" />
    <glyph glyph-name="Igrave" unicode="&#xcc;" horiz-adv-x="548" 
d="M135 0v1434h279v-1434h-279zM-59 1851h299l129 -303h-183z" />
    <glyph glyph-name="Iacute" unicode="&#xcd;" horiz-adv-x="548" 
d="M135 0v1434h279v-1434h-279zM152 1548l129 303h299l-246 -303h-182z" />
    <glyph glyph-name="Icircumflex" unicode="&#xce;" horiz-adv-x="548" 
d="M135 0v1434h279v-1434h-279zM-72 1548l234 303h219l233 -303h-188l-154 158l-155 -158h-189z" />
    <glyph glyph-name="Idieresis" unicode="&#xcf;" horiz-adv-x="548" 
d="M135 0v1434h279v-1434h-279zM-68 1720q0 59 41 100.5t101 41.5q62 0 104.5 -41.5t42.5 -100.5q0 -60 -42 -101.5t-105 -41.5q-60 0 -101 41.5t-41 101.5zM328 1720q0 59 41 100.5t102 41.5t103 -41.5t42 -100.5q0 -60 -42 -101.5t-103 -41.5t-102 41.5t-41 101.5z" />
    <glyph glyph-name="Eth" unicode="&#xd0;" horiz-adv-x="1411" 
d="M135 0v629h-129v176h129v629h469q151 0 282 -45.5t233 -132t161 -225.5t59 -314t-59 -314t-161 -225.5t-233 -132t-282 -45.5h-469zM410 242h170q76 0 144 15.5t130 51.5t106.5 89.5t70.5 135t26 183.5q0 126 -39.5 221t-107.5 149.5t-151 80.5t-179 26h-170v-389h254
v-176h-254v-387z" />
    <glyph glyph-name="Ntilde" unicode="&#xd1;" horiz-adv-x="1429" 
d="M135 0v1434h283l614 -996v996h260v-1434h-282l-613 993v-993h-262zM315 1595q3 117 75 190t183 73q90 0 172 -56q5 -3 21 -13t20.5 -13t16.5 -9t19 -8t17 -4t21 -2q69 0 78 105l180 -27q-4 -118 -75.5 -191t-182.5 -73q-90 0 -172 55q-4 3 -16 11t-16 10.5t-13.5 8.5
t-14 7.5t-12.5 5t-14 5t-13.5 2.5t-15.5 1q-66 0 -81 -104z" />
    <glyph glyph-name="Ograve" unicode="&#xd2;" horiz-adv-x="1595" 
d="M799 -16q-155 0 -290.5 55.5t-231 152t-150.5 232.5t-55 293t55 293t150.5 232.5t231 152t290.5 55.5t289.5 -55.5t230 -152t150.5 -232.5t55 -293t-55 -293t-150.5 -232.5t-230 -152t-289.5 -55.5zM352 717q0 -214 126 -353t321 -139t319.5 139t124.5 353t-125 353.5
t-319 139.5q-195 0 -321 -139.5t-126 -353.5zM467 1851h299l129 -303h-182z" />
    <glyph glyph-name="Oacute" unicode="&#xd3;" horiz-adv-x="1595" 
d="M799 -16q-155 0 -290.5 55.5t-231 152t-150.5 232.5t-55 293t55 293t150.5 232.5t231 152t290.5 55.5t289.5 -55.5t230 -152t150.5 -232.5t55 -293t-55 -293t-150.5 -232.5t-230 -152t-289.5 -55.5zM352 717q0 -214 126 -353t321 -139t319.5 139t124.5 353t-125 353.5
t-319 139.5q-195 0 -321 -139.5t-126 -353.5zM676 1548l129 303h299l-246 -303h-182z" />
    <glyph glyph-name="Ocircumflex" unicode="&#xd4;" horiz-adv-x="1595" 
d="M799 -16q-155 0 -290.5 55.5t-231 152t-150.5 232.5t-55 293t55 293t150.5 232.5t231 152t290.5 55.5t289.5 -55.5t230 -152t150.5 -232.5t55 -293t-55 -293t-150.5 -232.5t-230 -152t-289.5 -55.5zM352 717q0 -214 126 -353t321 -139t319.5 139t124.5 353t-125 353.5
t-319 139.5q-195 0 -321 -139.5t-126 -353.5zM455 1548l233 303h219l234 -303h-189l-153 158l-156 -158h-188z" />
    <glyph glyph-name="Otilde" unicode="&#xd5;" horiz-adv-x="1595" 
d="M799 -16q-155 0 -290.5 55.5t-231 152t-150.5 232.5t-55 293t55 293t150.5 232.5t231 152t290.5 55.5t289.5 -55.5t230 -152t150.5 -232.5t55 -293t-55 -293t-150.5 -232.5t-230 -152t-289.5 -55.5zM352 717q0 -214 126 -353t321 -139t319.5 139t124.5 353t-125 353.5
t-319 139.5q-195 0 -321 -139.5t-126 -353.5zM399 1595q3 117 75 190t183 73q90 0 172 -56q5 -3 21 -13t20.5 -13t16.5 -9t19 -8t17 -4t21 -2q69 0 78 105l180 -27q-4 -118 -75.5 -191t-182.5 -73q-90 0 -172 55q-4 3 -16 11t-16 10.5t-13.5 8.5t-14 7.5t-12.5 5t-14 5
t-13.5 2.5t-15.5 1q-67 0 -82 -104z" />
    <glyph glyph-name="Odieresis" unicode="&#xd6;" horiz-adv-x="1595" 
d="M799 -16q-155 0 -290.5 55.5t-231 152t-150.5 232.5t-55 293t55 293t150.5 232.5t231 152t290.5 55.5t289.5 -55.5t230 -152t150.5 -232.5t55 -293t-55 -293t-150.5 -232.5t-230 -152t-289.5 -55.5zM352 717q0 -214 126 -353t321 -139t319.5 139t124.5 353t-125 353.5
t-319 139.5q-195 0 -321 -139.5t-126 -353.5zM457 1720q0 59 40.5 100.5t100.5 41.5q62 0 104.5 -41.5t42.5 -100.5q0 -60 -42 -101.5t-105 -41.5q-60 0 -100.5 41.5t-40.5 101.5zM852 1720q0 59 41 100.5t102 41.5t103.5 -41.5t42.5 -100.5q0 -60 -42.5 -101.5
t-103.5 -41.5t-102 41.5t-41 101.5z" />
    <glyph glyph-name="multiply" unicode="&#xd7;" horiz-adv-x="1165" 
d="M903 172l176 176l-319 320l319 317l-176 176l-319 -317l-320 317l-178 -176l320 -317l-320 -320l178 -176l496 496l-176 176l-178 -176z" />
    <glyph glyph-name="Oslash" unicode="&#xd8;" horiz-adv-x="1595" 
d="M799 -16q-211 0 -381 98l-127 -150l-178 162l123 144q-164 200 -164 479q0 157 55 293t150.5 232.5t231 152t290.5 55.5q213 0 381 -100l127 151l180 -162l-125 -147q162 -199 162 -475q0 -157 -55 -293t-150.5 -232.5t-230 -152t-289.5 -55.5zM352 717q0 -148 64 -264
l598 702q-99 55 -215 55q-195 0 -321 -139.5t-126 -353.5zM586 279q94 -54 213 -54q195 0 319.5 139t124.5 353q0 146 -61 262z" />
    <glyph glyph-name="Ugrave" unicode="&#xd9;" horiz-adv-x="1400" 
d="M700 -16q-259 0 -412 139t-153 397v914h262v-916q0 -142 82.5 -216.5t220.5 -74.5q140 0 223 74.5t83 216.5v916h260v-914q0 -258 -153.5 -397t-412.5 -139zM369 1851h299l129 -303h-183z" />
    <glyph glyph-name="Uacute" unicode="&#xda;" horiz-adv-x="1400" 
d="M700 -16q-259 0 -412 139t-153 397v914h262v-916q0 -142 82.5 -216.5t220.5 -74.5q140 0 223 74.5t83 216.5v916h260v-914q0 -258 -153.5 -397t-412.5 -139zM578 1548l129 303h299l-246 -303h-182z" />
    <glyph glyph-name="Ucircumflex" unicode="&#xdb;" horiz-adv-x="1400" 
d="M700 -16q-259 0 -412 139t-153 397v914h262v-916q0 -142 82.5 -216.5t220.5 -74.5q140 0 223 74.5t83 216.5v916h260v-914q0 -258 -153.5 -397t-412.5 -139zM356 1548l234 303h219l233 -303h-188l-154 158l-155 -158h-189z" />
    <glyph glyph-name="Udieresis" unicode="&#xdc;" horiz-adv-x="1400" 
d="M700 -16q-259 0 -412 139t-153 397v914h262v-916q0 -142 82.5 -216.5t220.5 -74.5q140 0 223 74.5t83 216.5v916h260v-914q0 -258 -153.5 -397t-412.5 -139zM358 1720q0 59 41 100.5t101 41.5q62 0 104.5 -41.5t42.5 -100.5q0 -60 -42 -101.5t-105 -41.5q-60 0 -101 41.5
t-41 101.5zM754 1720q0 59 41 100.5t102 41.5t103 -41.5t42 -100.5q0 -60 -42 -101.5t-103 -41.5t-102 41.5t-41 101.5z" />
    <glyph glyph-name="Yacute" unicode="&#xdd;" horiz-adv-x="1271" 
d="M496 0v594l-492 840h299l332 -578l334 578h299l-494 -840v-594h-278zM512 1548l129 303h299l-246 -303h-182z" />
    <glyph glyph-name="Thorn" unicode="&#xde;" horiz-adv-x="1232" 
d="M137 0v1434h279v-291h299q224 0 350.5 -114.5t126.5 -311.5t-126.5 -311.5t-350.5 -114.5h-299v-291h-279zM416 524h284q114 0 168 52t54 141t-54 140.5t-168 51.5h-284v-385z" />
    <glyph glyph-name="germandbls" unicode="&#xdf;" horiz-adv-x="1269" 
d="M723 -16q-118 0 -176 16v240q82 -19 151 -19q109 1 170.5 58t61.5 153q0 110 -81 163.5t-226 53.5h-76v242h74q102 0 160.5 47.5t58.5 134.5q0 75 -53.5 123.5t-143.5 48.5t-144.5 -58.5t-54.5 -168.5v-1018h-278v649h-117v242h117v123q0 105 39 189.5t106 137.5t152 81
t180 28q207 0 332 -101t125 -257q0 -104 -51.5 -182.5t-130.5 -100.5q132 -41 210 -136t78 -247q0 -217 -130.5 -329.5t-352.5 -112.5z" />
    <glyph glyph-name="agrave" unicode="&#xe0;" horiz-adv-x="1103" 
d="M727 664q0 87 -55.5 137.5t-149.5 50.5q-85 0 -140.5 -48.5t-64.5 -131.5l-229 41q24 152 145.5 244t288.5 92q207 0 331 -109.5t124 -310.5v-629h-250v150q-43 -75 -128 -120.5t-181 -45.5q-151 0 -247.5 87t-96.5 220q0 151 114.5 235t346.5 109l192 18v11zM201 1450
h299l129 -303h-183zM324 299q0 -55 41 -90t110 -35q117 0 184.5 77t67.5 195v23l-197 -23q-100 -12 -153 -51t-53 -96z" />
    <glyph glyph-name="aacute" unicode="&#xe1;" horiz-adv-x="1103" 
d="M727 664q0 87 -55.5 137.5t-149.5 50.5q-85 0 -140.5 -48.5t-64.5 -131.5l-229 41q24 152 145.5 244t288.5 92q207 0 331 -109.5t124 -310.5v-629h-250v150q-43 -75 -128 -120.5t-181 -45.5q-151 0 -247.5 87t-96.5 220q0 151 114.5 235t346.5 109l192 18v11zM324 299
q0 -55 41 -90t110 -35q117 0 184.5 77t67.5 195v23l-197 -23q-100 -12 -153 -51t-53 -96zM410 1147l129 303h299l-246 -303h-182z" />
    <glyph glyph-name="acircumflex" unicode="&#xe2;" horiz-adv-x="1103" 
d="M727 664q0 87 -55.5 137.5t-149.5 50.5q-85 0 -140.5 -48.5t-64.5 -131.5l-229 41q24 152 145.5 244t288.5 92q207 0 331 -109.5t124 -310.5v-629h-250v150q-43 -75 -128 -120.5t-181 -45.5q-151 0 -247.5 87t-96.5 220q0 151 114.5 235t346.5 109l192 18v11zM188 1147
l234 303h219l233 -303h-188l-154 158l-155 -158h-189zM324 299q0 -55 41 -90t110 -35q117 0 184.5 77t67.5 195v23l-197 -23q-100 -12 -153 -51t-53 -96z" />
    <glyph glyph-name="atilde" unicode="&#xe3;" horiz-adv-x="1103" 
d="M727 664q0 87 -55.5 137.5t-149.5 50.5q-85 0 -140.5 -48.5t-64.5 -131.5l-229 41q24 152 145.5 244t288.5 92q207 0 331 -109.5t124 -310.5v-629h-250v150q-43 -75 -128 -120.5t-181 -45.5q-151 0 -247.5 87t-96.5 220q0 151 114.5 235t346.5 109l192 18v11zM133 1194
q3 117 75 189.5t183 72.5q92 0 172 -55q5 -3 21 -13t20.5 -13t16.5 -9t19 -8t17 -4t21 -2q69 0 78 104l180 -26q-4 -118 -76 -191.5t-182 -73.5q-89 0 -172 56q-4 3 -16 11t-16 10.5t-13.5 8.5t-14 7.5t-12.5 5t-14 5t-13.5 2.5t-15.5 1q-67 0 -82 -105zM324 299
q0 -55 41 -90t110 -35q117 0 184.5 77t67.5 195v23l-197 -23q-100 -12 -153 -51t-53 -96z" />
    <glyph glyph-name="adieresis" unicode="&#xe4;" horiz-adv-x="1103" 
d="M727 664q0 87 -55.5 137.5t-149.5 50.5q-85 0 -140.5 -48.5t-64.5 -131.5l-229 41q24 152 145.5 244t288.5 92q207 0 331 -109.5t124 -310.5v-629h-250v150q-43 -75 -128 -120.5t-181 -45.5q-151 0 -247.5 87t-96.5 220q0 151 114.5 235t346.5 109l192 18v11zM190 1319
q0 59 41 100t101 41q63 0 105 -41t42 -100q0 -60 -42 -101.5t-105 -41.5q-60 0 -101 41.5t-41 101.5zM324 299q0 -55 41 -90t110 -35q117 0 184.5 77t67.5 195v23l-197 -23q-100 -12 -153 -51t-53 -96zM586 1319q0 59 41 100t102 41t103 -41t42 -100q0 -60 -42 -101.5
t-103 -41.5t-102 41.5t-41 101.5z" />
    <glyph glyph-name="aring" unicode="&#xe5;" horiz-adv-x="1103" 
d="M727 664q0 87 -55.5 137.5t-149.5 50.5q-85 0 -140.5 -48.5t-64.5 -131.5l-229 41q24 152 145.5 244t288.5 92q207 0 331 -109.5t124 -310.5v-629h-250v150q-43 -75 -128 -120.5t-181 -45.5q-151 0 -247.5 87t-96.5 220q0 151 114.5 235t346.5 109l192 18v11zM295 1331
q0 97 67 161t170 64q104 0 172 -64t68 -161q0 -96 -68 -159.5t-172 -63.5q-102 0 -169.5 63.5t-67.5 159.5zM324 299q0 -55 41 -90t110 -35q117 0 184.5 77t67.5 195v23l-197 -23q-100 -12 -153 -51t-53 -96zM436 1331q0 -41 27 -66.5t69 -25.5q43 0 71 25.5t28 66.5
t-28 67.5t-71 26.5q-41 0 -68.5 -26.5t-27.5 -67.5z" />
    <glyph glyph-name="ae" unicode="&#xe6;" horiz-adv-x="1851" 
d="M748 664q0 87 -60.5 139.5t-159.5 52.5q-86 0 -145.5 -50.5t-65.5 -125.5l-219 43q25 145 144.5 235.5t285.5 90.5q246 0 373 -142q142 142 363 142q125 0 226.5 -43.5t163.5 -115.5t95 -159.5t33 -179.5q0 -62 -4 -102h-766q17 -117 88.5 -182.5t181.5 -65.5
q91 0 152.5 41t81.5 116l241 -65q-43 -146 -170 -227.5t-309 -81.5q-133 0 -237 50.5t-173 139.5q-137 -190 -403 -190q-181 0 -286 86t-105 221q0 157 122 248.5t355 91.5h197v33zM324 297q0 -55 46.5 -91t118.5 -36q120 0 189.5 77t69.5 195v7h-207q-104 0 -160.5 -42.5
t-56.5 -109.5zM1018 637h487q-9 97 -71 156t-170 59q-96 0 -160 -55.5t-86 -159.5z" />
    <glyph glyph-name="ccedilla" unicode="&#xe7;" horiz-adv-x="1148" 
d="M70 516q0 236 146 384.5t378 148.5q198 0 328.5 -96.5t156.5 -260.5l-252 -49q-14 82 -74.5 132t-150.5 50q-120 0 -192 -84t-72 -225t72 -225t192 -84q90 0 148 46t77 130l252 -51q-25 -139 -126 -228.5t-257 -111.5l-127 -295h-301l238 293q-198 28 -317 170.5
t-119 355.5z" />
    <glyph glyph-name="egrave" unicode="&#xe8;" horiz-adv-x="1167" 
d="M664 1147h-183l-245 303h299zM70 516q0 82 20 158.5t61.5 145t101 119.5t143.5 80.5t184 29.5q125 0 226.5 -43.5t163.5 -115.5t95 -159.5t33 -179.5q0 -62 -4 -102h-766q17 -117 88.5 -182.5t181.5 -65.5q91 0 152 41t81 116l242 -65q-43 -146 -170 -227.5t-309 -81.5
q-100 0 -185.5 29.5t-147 80.5t-105 119t-65 145t-21.5 158zM334 637h487q-9 97 -71 156t-170 59q-96 0 -160 -55.5t-86 -159.5z" />
    <glyph glyph-name="eacute" unicode="&#xe9;" horiz-adv-x="1167" 
d="M446 1147l129 303h299l-245 -303h-183zM70 516q0 82 20 158.5t61.5 145t101 119.5t143.5 80.5t184 29.5q125 0 226.5 -43.5t163.5 -115.5t95 -159.5t33 -179.5q0 -62 -4 -102h-766q17 -117 88.5 -182.5t181.5 -65.5q91 0 152 41t81 116l242 -65q-43 -146 -170 -227.5
t-309 -81.5q-100 0 -185.5 29.5t-147 80.5t-105 119t-65 145t-21.5 158zM334 637h487q-9 97 -71 156t-170 59q-96 0 -160 -55.5t-86 -159.5z" />
    <glyph glyph-name="ecircumflex" unicode="&#xea;" horiz-adv-x="1167" 
d="M457 1450h219l233 -303h-188l-154 158l-155 -158h-189zM70 516q0 82 20 158.5t61.5 145t101 119.5t143.5 80.5t184 29.5q125 0 226.5 -43.5t163.5 -115.5t95 -159.5t33 -179.5q0 -62 -4 -102h-766q17 -117 88.5 -182.5t181.5 -65.5q91 0 152 41t81 116l242 -65
q-43 -146 -170 -227.5t-309 -81.5q-100 0 -185.5 29.5t-147 80.5t-105 119t-65 145t-21.5 158zM334 637h487q-9 97 -71 156t-170 59q-96 0 -160 -55.5t-86 -159.5z" />
    <glyph glyph-name="edieresis" unicode="&#xeb;" horiz-adv-x="1167" 
d="M367 1176q-60 0 -101 41.5t-41 101.5q0 59 41 100t101 41q63 0 105 -41t42 -100q0 -60 -42 -101.5t-105 -41.5zM70 516q0 82 20 158.5t61.5 145t101 119.5t143.5 80.5t184 29.5q125 0 226.5 -43.5t163.5 -115.5t95 -159.5t33 -179.5q0 -62 -4 -102h-766
q17 -117 88.5 -182.5t181.5 -65.5q91 0 152 41t81 116l242 -65q-43 -146 -170 -227.5t-309 -81.5q-100 0 -185.5 29.5t-147 80.5t-105 119t-65 145t-21.5 158zM334 637h487q-9 97 -71 156t-170 59q-96 0 -160 -55.5t-86 -159.5zM621 1319q0 59 41 100t102 41t103 -41
t42 -100q0 -60 -42 -101.5t-103 -41.5t-102 41.5t-41 101.5z" />
    <glyph glyph-name="igrave" unicode="&#xec;" horiz-adv-x="507" 
d="M125 0v1032h258v-1032h-258zM-80 1450h299l129 -303h-182z" />
    <glyph glyph-name="iacute" unicode="&#xed;" horiz-adv-x="507" 
d="M125 0v1032h258v-1032h-258zM131 1147l129 303h299l-246 -303h-182z" />
    <glyph glyph-name="icircumflex" unicode="&#xee;" horiz-adv-x="507" 
d="M125 0v1032h258v-1032h-258zM-92 1147l233 303h219l234 -303h-188l-154 158l-156 -158h-188z" />
    <glyph glyph-name="idieresis" unicode="&#xef;" horiz-adv-x="507" 
d="M125 0v1032h258v-1032h-258zM-88 1319q0 59 40.5 100t100.5 41q63 0 105.5 -41t42.5 -100q0 -60 -42.5 -101.5t-105.5 -41.5q-60 0 -100.5 41.5t-40.5 101.5zM307 1319q0 59 41.5 100t102.5 41t103 -41t42 -100q0 -60 -42 -101.5t-103 -41.5t-102.5 41.5t-41.5 101.5z
" />
    <glyph glyph-name="eth" unicode="&#xf0;" horiz-adv-x="1222" 
d="M608 -16q-234 0 -386 150.5t-152 381.5q0 150 67 269.5t182 185t256 65.5q211 0 316 -147q-42 170 -180 311l-293 -98l-39 127l217 71q-78 60 -203 121l273 60q89 -45 157 -105l219 74l37 -127l-149 -49q226 -261 223 -668q-3 -300 -152.5 -461t-392.5 -161zM330 516
q0 -138 76 -223.5t202 -85.5q125 0 202 85.5t77 223.5t-77 223.5t-202 85.5q-126 0 -202 -85.5t-76 -223.5z" />
    <glyph glyph-name="ntilde" unicode="&#xf1;" horiz-adv-x="1212" 
d="M125 0v1032h258v-155q52 78 137.5 125t190.5 47q169 0 272.5 -102.5t103.5 -270.5v-676h-258v614q0 92 -53 148.5t-143 56.5q-118 0 -184 -96.5t-66 -269.5v-453h-258zM203 1194q3 117 75 189.5t183 72.5q92 0 172 -55q5 -3 21 -13t20.5 -13t16.5 -9t19 -8t17 -4t21 -2
q68 0 77 104l181 -26q-4 -118 -76 -191.5t-182 -73.5q-90 0 -173 56q-5 3 -18.5 12t-17.5 12t-14.5 9t-16 8t-14 5t-16.5 4t-17 1q-67 0 -82 -105z" />
    <glyph glyph-name="ograve" unicode="&#xf2;" horiz-adv-x="1216" 
d="M608 -16q-234 0 -386 150.5t-152 381.5t152 382t386 151t386.5 -151t152.5 -382t-152.5 -381.5t-386.5 -150.5zM276 1450h299l130 -303h-183zM330 516q0 -138 76 -223.5t202 -85.5q125 0 202 85.5t77 223.5t-77 223.5t-202 85.5q-126 0 -202 -85.5t-76 -223.5z" />
    <glyph glyph-name="oacute" unicode="&#xf3;" horiz-adv-x="1216" 
d="M608 -16q-234 0 -386 150.5t-152 381.5t152 382t386 151t386.5 -151t152.5 -382t-152.5 -381.5t-386.5 -150.5zM330 516q0 -138 76 -223.5t202 -85.5q125 0 202 85.5t77 223.5t-77 223.5t-202 85.5q-126 0 -202 -85.5t-76 -223.5zM485 1147l129 303h299l-245 -303h-183z
" />
    <glyph glyph-name="ocircumflex" unicode="&#xf4;" horiz-adv-x="1216" 
d="M608 -16q-234 0 -386 150.5t-152 381.5t152 382t386 151t386.5 -151t152.5 -382t-152.5 -381.5t-386.5 -150.5zM264 1147l234 303h219l233 -303h-188l-154 158l-155 -158h-189zM330 516q0 -138 76 -223.5t202 -85.5q125 0 202 85.5t77 223.5t-77 223.5t-202 85.5
q-126 0 -202 -85.5t-76 -223.5z" />
    <glyph glyph-name="otilde" unicode="&#xf5;" horiz-adv-x="1216" 
d="M608 -16q-234 0 -386 150.5t-152 381.5t152 382t386 151t386.5 -151t152.5 -382t-152.5 -381.5t-386.5 -150.5zM209 1194q3 117 75 189.5t183 72.5q92 0 172 -55q5 -3 21 -13t20.5 -13t16.5 -9t19 -8t17 -4t21 -2q68 0 77 104l181 -26q-4 -118 -76 -191.5t-182 -73.5
q-89 0 -172 56q-4 3 -16 11t-16 10.5t-13.5 8.5t-14 7.5t-12.5 5t-14 5t-13.5 2.5t-15.5 1q-67 0 -82 -105zM330 516q0 -138 76 -223.5t202 -85.5q125 0 202 85.5t77 223.5t-77 223.5t-202 85.5q-126 0 -202 -85.5t-76 -223.5z" />
    <glyph glyph-name="odieresis" unicode="&#xf6;" horiz-adv-x="1216" 
d="M608 -16q-234 0 -386 150.5t-152 381.5t152 382t386 151t386.5 -151t152.5 -382t-152.5 -381.5t-386.5 -150.5zM266 1319q0 59 41 100t101 41q63 0 105 -41t42 -100q0 -60 -42 -101.5t-105 -41.5q-60 0 -101 41.5t-41 101.5zM330 516q0 -138 76 -223.5t202 -85.5
q125 0 202 85.5t77 223.5t-77 223.5t-202 85.5q-126 0 -202 -85.5t-76 -223.5zM662 1319q0 59 41 100t102 41t103 -41t42 -100q0 -60 -42 -101.5t-103 -41.5t-102 41.5t-41 101.5z" />
    <glyph glyph-name="divide" unicode="&#xf7;" horiz-adv-x="1124" 
d="M66 555v221h993v-221h-993zM406 229q0 67 45.5 112.5t113.5 45.5q69 0 114.5 -45t45.5 -113t-45.5 -112.5t-114.5 -44.5q-68 0 -113.5 45t-45.5 112zM406 1100q0 67 45.5 112t113.5 45q69 0 114.5 -44.5t45.5 -112.5t-45.5 -113t-114.5 -45q-68 0 -113.5 45.5
t-45.5 112.5z" />
    <glyph glyph-name="oslash" unicode="&#xf8;" horiz-adv-x="1216" 
d="M608 -16q-159 0 -286 73l-111 -129l-125 109l109 127q-125 144 -125 352q0 231 152 382t386 151q158 0 287 -74l109 127l124 -109l-106 -125q125 -144 125 -352q0 -231 -152.5 -381.5t-386.5 -150.5zM330 516q0 -86 32 -158l377 437q-59 30 -131 30q-126 0 -202 -85.5
t-76 -223.5zM477 238q57 -31 131 -31q125 0 202 85.5t77 223.5q0 84 -33 158z" />
    <glyph glyph-name="ugrave" unicode="&#xf9;" horiz-adv-x="1212" 
d="M1087 1032v-1032h-258v156q-52 -78 -137 -125t-190 -47q-169 0 -273 102t-104 270v676h258v-614q0 -92 53.5 -148.5t143.5 -56.5q118 0 183.5 96.5t65.5 270.5v452h258zM264 1450h299l129 -303h-182z" />
    <glyph glyph-name="uacute" unicode="&#xfa;" horiz-adv-x="1212" 
d="M1087 1032v-1032h-258v156q-52 -78 -137 -125t-190 -47q-169 0 -273 102t-104 270v676h258v-614q0 -92 53.5 -148.5t143.5 -56.5q118 0 183.5 96.5t65.5 270.5v452h258zM475 1147l129 303h299l-246 -303h-182z" />
    <glyph glyph-name="ucircumflex" unicode="&#xfb;" horiz-adv-x="1212" 
d="M1087 1032v-1032h-258v156q-52 -78 -137 -125t-190 -47q-169 0 -273 102t-104 270v676h258v-614q0 -92 53.5 -148.5t143.5 -56.5q118 0 183.5 96.5t65.5 270.5v452h258zM252 1147l233 303h220l233 -303h-188l-154 158l-156 -158h-188z" />
    <glyph glyph-name="udieresis" unicode="&#xfc;" horiz-adv-x="1212" 
d="M1087 1032v-1032h-258v156q-52 -78 -137 -125t-190 -47q-169 0 -273 102t-104 270v676h258v-614q0 -92 53.5 -148.5t143.5 -56.5q118 0 183.5 96.5t65.5 270.5v452h258zM256 1319q0 59 40.5 100t100.5 41q63 0 105.5 -41t42.5 -100q0 -60 -42.5 -101.5t-105.5 -41.5
q-60 0 -100.5 41.5t-40.5 101.5zM651 1319q0 59 41.5 100t102.5 41t103 -41t42 -100q0 -60 -42 -101.5t-103 -41.5t-102.5 41.5t-41.5 101.5z" />
    <glyph glyph-name="yacute" unicode="&#xfd;" horiz-adv-x="1081" 
d="M801 1032h264l-545 -1405h-262l160 414l-402 991h281l248 -663zM418 1147l129 303h299l-246 -303h-182z" />
    <glyph glyph-name="thorn" unicode="&#xfe;" horiz-adv-x="1239" 
d="M125 -418v1858h260v-518q55 59 134.5 93t170.5 34q220 0 349.5 -147t129.5 -386q0 -238 -135.5 -385t-361.5 -147q-92 0 -169.5 29t-117.5 77v-508h-260zM367 516q0 -146 72 -227.5t200 -81.5t201 81.5t73 227.5q0 145 -73 227t-201 82q-127 0 -199.5 -82t-72.5 -227z
" />
    <glyph glyph-name="ydieresis" unicode="&#xff;" horiz-adv-x="1081" 
d="M801 1032h264l-545 -1405h-262l160 414l-402 991h281l248 -663zM199 1319q0 59 40.5 100t100.5 41q63 0 105 -41t42 -100q0 -60 -42 -101.5t-105 -41.5q-60 0 -100.5 41.5t-40.5 101.5zM594 1319q0 59 41 100t102 41t103.5 -41t42.5 -100q0 -60 -42.5 -101.5
t-103.5 -41.5t-102 41.5t-41 101.5z" />
    <glyph glyph-name="Amacron" unicode="&#x100;" horiz-adv-x="1390" 
d="M696 1069l-190 -516h381zM14 0l551 1434h260l551 -1434h-286l-117 317h-555l-117 -317h-287zM410 1597v199h569v-199h-569z" />
    <glyph glyph-name="amacron" unicode="&#x101;" horiz-adv-x="1103" 
d="M727 664q0 87 -55.5 137.5t-149.5 50.5q-85 0 -140.5 -48.5t-64.5 -131.5l-229 41q24 152 145.5 244t288.5 92q207 0 331 -109.5t124 -310.5v-629h-250v150q-43 -75 -128 -120.5t-181 -45.5q-151 0 -247.5 87t-96.5 220q0 151 114.5 235t346.5 109l192 18v11zM248 1196
v199h569v-199h-569zM324 299q0 -55 41 -90t110 -35q117 0 184.5 77t67.5 195v23l-197 -23q-100 -12 -153 -51t-53 -96z" />
    <glyph glyph-name="Abreve" unicode="&#x102;" horiz-adv-x="1390" 
d="M696 1069l-190 -516h381zM14 0l551 1434h260l551 -1434h-286l-117 317h-555l-117 -317h-287zM412 1819h190q0 -49 25.5 -79t66.5 -30q43 0 70 30t27 79h190q0 -119 -81.5 -198t-205.5 -79q-121 0 -201.5 79t-80.5 198z" />
    <glyph glyph-name="abreve" unicode="&#x103;" horiz-adv-x="1103" 
d="M727 664q0 87 -55.5 137.5t-149.5 50.5q-85 0 -140.5 -48.5t-64.5 -131.5l-229 41q24 152 145.5 244t288.5 92q207 0 331 -109.5t124 -310.5v-629h-250v150q-43 -75 -128 -120.5t-181 -45.5q-151 0 -247.5 87t-96.5 220q0 151 114.5 235t346.5 109l192 18v11zM250 1417
h190q0 -49 25.5 -78.5t66.5 -29.5q43 0 70 29.5t27 78.5h190q0 -119 -81.5 -197.5t-205.5 -78.5q-121 0 -201.5 78.5t-80.5 197.5zM324 299q0 -55 41 -90t110 -35q117 0 184.5 77t67.5 195v23l-197 -23q-100 -12 -153 -51t-53 -96z" />
    <glyph glyph-name="Aogonek" unicode="&#x104;" horiz-adv-x="1390" 
d="M696 1069l-190 -516h381zM14 0l551 1434h260l551 -1434h-96q-70 -74 -70 -131q0 -35 21 -53.5t57 -18.5q35 0 51 4l25 -178q-54 -12 -115 -12q-110 0 -177.5 57.5t-67.5 149.5q0 45 23 97.5t60 92.5l-114 309h-555l-117 -317h-287z" />
    <glyph glyph-name="aogonek" unicode="&#x105;" horiz-adv-x="1103" 
d="M727 664q0 87 -55.5 137.5t-149.5 50.5q-85 0 -140.5 -48.5t-64.5 -131.5l-229 41q24 152 145.5 244t288.5 92q207 0 331 -109.5t124 -310.5v-629q-70 -74 -70 -131q0 -35 21 -53.5t57 -18.5q35 0 51 4l25 -178q-54 -12 -115 -12q-110 0 -178 57.5t-68 149.5
q0 42 21.5 92.5t54.5 89.5h-49v150q-43 -75 -128 -120.5t-181 -45.5q-151 0 -247.5 87t-96.5 220q0 151 114.5 235t346.5 109l192 18v11zM324 299q0 -55 41 -90t110 -35q117 0 184.5 77t67.5 195v23l-197 -23q-100 -12 -153 -51t-53 -96z" />
    <glyph glyph-name="Cacute" unicode="&#x106;" horiz-adv-x="1495" 
d="M784 -16q-115 0 -219.5 29t-194.5 89.5t-156.5 146.5t-104 206t-37.5 262q0 176 58.5 318t158 231t226.5 136.5t269 47.5q257 0 428.5 -129.5t208.5 -347.5l-276 -58q-28 136 -125.5 215.5t-235.5 79.5q-189 0 -309.5 -129.5t-120.5 -363.5t120 -363t310 -129
q139 0 232 72t121 199l280 -62q-53 -211 -219.5 -330.5t-413.5 -119.5zM649 1548l129 303h299l-246 -303h-182z" />
    <glyph glyph-name="cacute" unicode="&#x107;" horiz-adv-x="1148" 
d="M594 -16q-232 0 -378 148t-146 384t146 384.5t378 148.5q198 0 328.5 -96.5t156.5 -260.5l-252 -49q-14 82 -74.5 132t-150.5 50q-120 0 -192 -84t-72 -225t72 -225t192 -84q90 0 148 46t77 130l252 -51q-29 -162 -159 -255t-326 -93zM469 1147l129 303h299l-246 -303
h-182z" />
    <glyph glyph-name="Ccircumflex" unicode="&#x108;" horiz-adv-x="1495" 
d="M784 -16q-115 0 -219.5 29t-194.5 89.5t-156.5 146.5t-104 206t-37.5 262q0 176 58.5 318t158 231t226.5 136.5t269 47.5q257 0 428.5 -129.5t208.5 -347.5l-276 -58q-28 136 -125.5 215.5t-235.5 79.5q-189 0 -309.5 -129.5t-120.5 -363.5t120 -363t310 -129
q139 0 232 72t121 199l280 -62q-53 -211 -219.5 -330.5t-413.5 -119.5zM426 1548l233 303h220l233 -303h-188l-154 158l-156 -158h-188z" />
    <glyph glyph-name="ccircumflex" unicode="&#x109;" horiz-adv-x="1148" 
d="M594 -16q-232 0 -378 148t-146 384t146 384.5t378 148.5q198 0 328.5 -96.5t156.5 -260.5l-252 -49q-14 82 -74.5 132t-150.5 50q-120 0 -192 -84t-72 -225t72 -225t192 -84q90 0 148 46t77 130l252 -51q-29 -162 -159 -255t-326 -93zM246 1147l233 303h219l234 -303
h-189l-153 158l-156 -158h-188z" />
    <glyph glyph-name="Cdotaccent" unicode="&#x10a;" horiz-adv-x="1495" 
d="M784 -16q-115 0 -219.5 29t-194.5 89.5t-156.5 146.5t-104 206t-37.5 262q0 176 58.5 318t158 231t226.5 136.5t269 47.5q257 0 428.5 -129.5t208.5 -347.5l-276 -58q-28 136 -125.5 215.5t-235.5 79.5q-189 0 -309.5 -129.5t-120.5 -363.5t120 -363t310 -129
q139 0 232 72t121 199l280 -62q-53 -211 -219.5 -330.5t-413.5 -119.5zM612 1751q0 67 46 112.5t114 45.5q70 0 117 -46t47 -112q0 -68 -47 -114t-117 -46q-69 0 -114.5 46t-45.5 114z" />
    <glyph glyph-name="cdotaccent" unicode="&#x10b;" horiz-adv-x="1148" 
d="M594 -16q-232 0 -378 148t-146 384t146 384.5t378 148.5q198 0 328.5 -96.5t156.5 -260.5l-252 -49q-14 82 -74.5 132t-150.5 50q-120 0 -192 -84t-72 -225t72 -225t192 -84q90 0 148 46t77 130l252 -51q-29 -162 -159 -255t-326 -93zM432 1350q0 66 45.5 111.5
t114.5 45.5q70 0 117 -45.5t47 -111.5q0 -68 -47 -114t-117 -46q-69 0 -114.5 46t-45.5 114z" />
    <glyph glyph-name="Ccaron" unicode="&#x10c;" horiz-adv-x="1495" 
d="M784 -16q-115 0 -219.5 29t-194.5 89.5t-156.5 146.5t-104 206t-37.5 262q0 176 58.5 318t158 231t226.5 136.5t269 47.5q257 0 428.5 -129.5t208.5 -347.5l-276 -58q-28 136 -125.5 215.5t-235.5 79.5q-189 0 -309.5 -129.5t-120.5 -363.5t120 -363t310 -129
q139 0 232 72t121 199l280 -62q-53 -211 -219.5 -330.5t-413.5 -119.5zM428 1851h188l156 -157l154 157h188l-233 -303h-219z" />
    <glyph glyph-name="ccaron" unicode="&#x10d;" horiz-adv-x="1148" 
d="M594 -16q-232 0 -378 148t-146 384t146 384.5t378 148.5q198 0 328.5 -96.5t156.5 -260.5l-252 -49q-14 82 -74.5 132t-150.5 50q-120 0 -192 -84t-72 -225t72 -225t192 -84q90 0 148 46t77 130l252 -51q-29 -162 -159 -255t-326 -93zM248 1450h188l156 -158l153 158h189
l-234 -303h-219z" />
    <glyph glyph-name="Dcaron" unicode="&#x10e;" horiz-adv-x="1411" 
d="M135 0v1434h469q151 0 282 -45.5t233 -132t161 -225.5t59 -314t-59 -314t-161 -225.5t-233 -132t-282 -45.5h-469zM287 1851h188l156 -157l153 157h189l-234 -303h-219zM410 242h170q76 0 144 15.5t130 51.5t106.5 89.5t70.5 135t26 183.5q0 126 -39.5 221t-107.5 149.5
t-151 80.5t-179 26h-170v-952z" />
    <glyph glyph-name="dcaron" unicode="&#x10f;" horiz-adv-x="1484" 
d="M561 -16q-229 0 -360 146t-131 386t130.5 386.5t356.5 146.5q95 0 174.5 -35.5t124.5 -95.5v532h258v-1450h-258v119q-38 -62 -118 -98.5t-177 -36.5zM326 516q0 -140 74.5 -224.5t197.5 -84.5q124 0 199 84.5t75 224.5t-75 224.5t-199 84.5q-123 0 -197.5 -84.5
t-74.5 -224.5zM1202 1147l64 381h247l-161 -381h-150z" />
    <glyph glyph-name="Dcroat" unicode="&#x110;" horiz-adv-x="1411" 
d="M135 0v629h-129v176h129v629h469q151 0 282 -45.5t233 -132t161 -225.5t59 -314t-59 -314t-161 -225.5t-233 -132t-282 -45.5h-469zM410 242h170q76 0 144 15.5t130 51.5t106.5 89.5t70.5 135t26 183.5q0 126 -39.5 221t-107.5 149.5t-151 80.5t-179 26h-170v-389h254
v-176h-254v-387z" />
    <glyph glyph-name="dcroat" unicode="&#x111;" horiz-adv-x="1239" 
d="M561 -16q-229 0 -360 146t-131 386t130.5 386.5t356.5 146.5q95 0 174.5 -35.5t124.5 -95.5v237h-244v176h244v119h258v-119h156v-176h-156v-1155h-258v119q-38 -62 -118 -98.5t-177 -36.5zM326 516q0 -140 74.5 -224.5t197.5 -84.5q124 0 199 84.5t75 224.5t-75 224.5
t-199 84.5q-123 0 -197.5 -84.5t-74.5 -224.5z" />
    <glyph glyph-name="Emacron" unicode="&#x112;" horiz-adv-x="1187" 
d="M135 0v1434h959v-240h-680v-315h544v-242h-544v-395h702v-242h-981zM342 1597v199h569v-199h-569z" />
    <glyph glyph-name="emacron" unicode="&#x113;" horiz-adv-x="1167" 
d="M283 1196v199h569v-199h-569zM70 516q0 82 20 158.5t61.5 145t101 119.5t143.5 80.5t184 29.5q125 0 226.5 -43.5t163.5 -115.5t95 -159.5t33 -179.5q0 -62 -4 -102h-766q17 -117 88.5 -182.5t181.5 -65.5q91 0 152 41t81 116l242 -65q-43 -146 -170 -227.5t-309 -81.5
q-100 0 -185.5 29.5t-147 80.5t-105 119t-65 145t-21.5 158zM334 637h487q-9 97 -71 156t-170 59q-96 0 -160 -55.5t-86 -159.5z" />
    <glyph glyph-name="Ebreve" unicode="&#x114;" horiz-adv-x="1187" 
d="M135 0v1434h959v-240h-680v-315h544v-242h-544v-395h702v-242h-981zM344 1819h191q0 -49 25.5 -79t66.5 -30q43 0 69.5 30t26.5 79h190q0 -119 -81 -198t-205 -79q-121 0 -202 79t-81 198z" />
    <glyph glyph-name="ebreve" unicode="&#x115;" horiz-adv-x="1167" 
d="M567 1141q-121 0 -201.5 78.5t-80.5 197.5h190q0 -49 25.5 -78.5t66.5 -29.5q43 0 70 29.5t27 78.5h190q0 -119 -81.5 -197.5t-205.5 -78.5zM70 516q0 82 20 158.5t61.5 145t101 119.5t143.5 80.5t184 29.5q125 0 226.5 -43.5t163.5 -115.5t95 -159.5t33 -179.5
q0 -62 -4 -102h-766q17 -117 88.5 -182.5t181.5 -65.5q91 0 152 41t81 116l242 -65q-43 -146 -170 -227.5t-309 -81.5q-100 0 -185.5 29.5t-147 80.5t-105 119t-65 145t-21.5 158zM334 637h487q-9 97 -71 156t-170 59q-96 0 -160 -55.5t-86 -159.5z" />
    <glyph glyph-name="Edotaccent" unicode="&#x116;" horiz-adv-x="1187" 
d="M135 0v1434h959v-240h-680v-315h544v-242h-544v-395h702v-242h-981zM469 1751q0 67 45.5 112.5t114.5 45.5q70 0 117 -46t47 -112q0 -68 -47 -114t-117 -46q-69 0 -114.5 46t-45.5 114z" />
    <glyph glyph-name="edotaccent" unicode="&#x117;" horiz-adv-x="1167" 
d="M569 1190q-69 0 -114 46t-45 114q0 66 45 111.5t114 45.5q70 0 117 -45.5t47 -111.5q0 -68 -47 -114t-117 -46zM70 516q0 82 20 158.5t61.5 145t101 119.5t143.5 80.5t184 29.5q125 0 226.5 -43.5t163.5 -115.5t95 -159.5t33 -179.5q0 -62 -4 -102h-766
q17 -117 88.5 -182.5t181.5 -65.5q91 0 152 41t81 116l242 -65q-43 -146 -170 -227.5t-309 -81.5q-100 0 -185.5 29.5t-147 80.5t-105 119t-65 145t-21.5 158zM334 637h487q-9 97 -71 156t-170 59q-96 0 -160 -55.5t-86 -159.5z" />
    <glyph glyph-name="Eogonek" unicode="&#x118;" horiz-adv-x="1187" 
d="M135 0v1434h959v-240h-680v-315h544v-242h-544v-395h702v-242h-2q-70 -74 -70 -131q0 -35 21 -53.5t57 -18.5t52 4l24 -178q-54 -12 -115 -12q-110 0 -177.5 57.5t-67.5 149.5q0 42 21 92.5t54 89.5h-778z" />
    <glyph glyph-name="eogonek" unicode="&#x119;" horiz-adv-x="1167" 
d="M698 -389q-110 0 -177.5 57.5t-67.5 149.5q0 40 18.5 87t48.5 83q-107 13 -194 62.5t-142 122t-84.5 161t-29.5 182.5q0 82 20 158.5t61.5 145t101 119.5t143.5 80.5t184 29.5q125 0 226.5 -43.5t163.5 -115.5t95 -159.5t33 -179.5q0 -62 -4 -102h-766
q17 -117 88.5 -182.5t181.5 -65.5q91 0 152 41t81 116l242 -65q-35 -117 -125.5 -193.5t-222.5 -103.5q-66 -75 -66 -127q0 -35 21 -53.5t57 -18.5q35 0 51 4l25 -178q-54 -12 -115 -12zM334 637h487q-9 97 -71 156t-170 59q-96 0 -160 -55.5t-86 -159.5z" />
    <glyph glyph-name="Ecaron" unicode="&#x11a;" horiz-adv-x="1187" 
d="M135 0v1434h959v-240h-680v-315h544v-242h-544v-395h702v-242h-981zM285 1851h188l156 -157l153 157h189l-234 -303h-219z" />
    <glyph glyph-name="ecaron" unicode="&#x11b;" horiz-adv-x="1167" 
d="M459 1147l-234 303h189l155 -158l154 158h188l-233 -303h-219zM70 516q0 82 20 158.5t61.5 145t101 119.5t143.5 80.5t184 29.5q125 0 226.5 -43.5t163.5 -115.5t95 -159.5t33 -179.5q0 -62 -4 -102h-766q17 -117 88.5 -182.5t181.5 -65.5q91 0 152 41t81 116l242 -65
q-43 -146 -170 -227.5t-309 -81.5q-100 0 -185.5 29.5t-147 80.5t-105 119t-65 145t-21.5 158zM334 637h487q-9 97 -71 156t-170 59q-96 0 -160 -55.5t-86 -159.5z" />
    <glyph glyph-name="Gcircumflex" unicode="&#x11c;" horiz-adv-x="1540" 
d="M774 -16q-111 0 -213.5 29t-191.5 89t-155 145.5t-104 206t-38 263.5t39 263.5t107 206t159.5 145.5t196.5 89t219 29q258 0 430 -127t213 -350l-275 -58q-26 135 -126 215t-244 80q-196 0 -317.5 -131.5t-121.5 -361.5t120.5 -361t313.5 -131q161 0 263.5 87.5
t113.5 228.5h-426v225h684v-766h-252v174q-47 -87 -155 -138.5t-240 -51.5zM424 1548l233 303h220l233 -303h-188l-154 158l-156 -158h-188z" />
    <glyph glyph-name="gcircumflex" unicode="&#x11d;" horiz-adv-x="1218" 
d="M551 31q-224 0 -352.5 139t-128.5 369q0 231 127.5 370.5t347.5 139.5q93 0 170 -33t121 -88v104h256v-966q0 -204 -141 -329.5t-371 -125.5q-183 0 -314 88.5t-157 232.5l239 39q9 -70 74 -111.5t158 -41.5q117 0 187.5 60.5t70.5 160.5v113q-38 -55 -116 -88t-171 -33z
M242 1147l233 303h219l234 -303h-189l-153 158l-156 -158h-188zM326 539q0 -129 71.5 -207t190.5 -78q120 0 192 78t72 207q0 130 -72 208t-192 78q-119 0 -190.5 -78t-71.5 -208z" />
    <glyph glyph-name="Gbreve" unicode="&#x11e;" horiz-adv-x="1540" 
d="M774 -16q-111 0 -213.5 29t-191.5 89t-155 145.5t-104 206t-38 263.5t39 263.5t107 206t159.5 145.5t196.5 89t219 29q258 0 430 -127t213 -350l-275 -58q-26 135 -126 215t-244 80q-196 0 -317.5 -131.5t-121.5 -361.5t120.5 -361t313.5 -131q161 0 263.5 87.5
t113.5 228.5h-426v225h684v-766h-252v174q-47 -87 -155 -138.5t-240 -51.5zM485 1819h191q0 -49 25.5 -79t66.5 -30q43 0 69.5 30t26.5 79h191q0 -119 -81.5 -198t-205.5 -79q-121 0 -202 79t-81 198z" />
    <glyph glyph-name="gbreve" unicode="&#x11f;" horiz-adv-x="1218" 
d="M551 31q-224 0 -352.5 139t-128.5 369q0 231 127.5 370.5t347.5 139.5q93 0 170 -33t121 -88v104h256v-966q0 -204 -141 -329.5t-371 -125.5q-183 0 -314 88.5t-157 232.5l239 39q9 -70 74 -111.5t158 -41.5q117 0 187.5 60.5t70.5 160.5v113q-38 -55 -116 -88t-171 -33z
M303 1417h191q0 -49 25.5 -78.5t66.5 -29.5q43 0 69.5 29.5t26.5 78.5h190q0 -119 -81 -197.5t-205 -78.5q-122 0 -202.5 79t-80.5 197zM326 539q0 -129 71.5 -207t190.5 -78q120 0 192 78t72 207q0 130 -72 208t-192 78q-119 0 -190.5 -78t-71.5 -208z" />
    <glyph glyph-name="Gdotaccent" unicode="&#x120;" horiz-adv-x="1540" 
d="M774 -16q-111 0 -213.5 29t-191.5 89t-155 145.5t-104 206t-38 263.5t39 263.5t107 206t159.5 145.5t196.5 89t219 29q258 0 430 -127t213 -350l-275 -58q-26 135 -126 215t-244 80q-196 0 -317.5 -131.5t-121.5 -361.5t120.5 -361t313.5 -131q161 0 263.5 87.5
t113.5 228.5h-426v225h684v-766h-252v174q-47 -87 -155 -138.5t-240 -51.5zM610 1751q0 67 46 112.5t114 45.5q70 0 117 -46t47 -112q0 -68 -47 -114t-117 -46q-69 0 -114.5 46t-45.5 114z" />
    <glyph glyph-name="gdotaccent" unicode="&#x121;" horiz-adv-x="1218" 
d="M551 31q-224 0 -352.5 139t-128.5 369q0 231 127.5 370.5t347.5 139.5q93 0 170 -33t121 -88v104h256v-966q0 -204 -141 -329.5t-371 -125.5q-183 0 -314 88.5t-157 232.5l239 39q9 -70 74 -111.5t158 -41.5q117 0 187.5 60.5t70.5 160.5v113q-38 -55 -116 -88t-171 -33z
M326 539q0 -129 71.5 -207t190.5 -78q120 0 192 78t72 207q0 130 -72 208t-192 78q-119 0 -190.5 -78t-71.5 -208zM426 1350q0 66 45.5 111.5t114.5 45.5q70 0 117 -45.5t47 -111.5q0 -68 -47 -114t-117 -46q-69 0 -114.5 46t-45.5 114z" />
    <glyph glyph-name="uni0122" unicode="&#x122;" horiz-adv-x="1540" 
d="M774 -16q-111 0 -213.5 29t-191.5 89t-155 145.5t-104 206t-38 263.5t39 263.5t107 206t159.5 145.5t196.5 89t219 29q258 0 430 -127t213 -350l-275 -58q-26 135 -126 215t-244 80q-196 0 -317.5 -131.5t-121.5 -361.5t120.5 -361t313.5 -131q161 0 263.5 87.5
t113.5 228.5h-426v225h684v-766h-252v174q-47 -87 -155 -138.5t-240 -51.5zM549 -389l80 303h280l-178 -303h-182z" />
    <glyph glyph-name="uni0123" unicode="&#x123;" horiz-adv-x="1218" 
d="M551 31q-224 0 -352.5 139t-128.5 369q0 231 127.5 370.5t347.5 139.5q93 0 170 -33t121 -88v104h256v-966q0 -204 -141 -329.5t-371 -125.5q-183 0 -314 88.5t-157 232.5l239 39q9 -70 74 -111.5t158 -41.5q117 0 187.5 60.5t70.5 160.5v113q-38 -55 -116 -88t-171 -33z
M326 539q0 -129 71.5 -207t190.5 -78q120 0 192 78t72 207q0 130 -72 208t-192 78q-119 0 -190.5 -78t-71.5 -208zM485 1147l127 303h199l-53 -303h-273z" />
    <glyph glyph-name="Hcircumflex" unicode="&#x124;" horiz-adv-x="1456" 
d="M1042 1434h279v-1434h-279v625h-628v-625h-279v1434h279v-570h628v570zM383 1548l233 303h220l233 -303h-188l-154 158l-156 -158h-188z" />
    <glyph glyph-name="hcircumflex" unicode="&#x125;" horiz-adv-x="1220" 
d="M125 0v1450h258v-578q51 85 136 131t192 46q173 0 279 -102t106 -271v-676h-258v612q0 95 -55 151t-150 56q-120 0 -185 -97.5t-65 -272.5v-449h-258zM-92 1548l233 303h219l234 -303h-188l-154 158l-156 -158h-188z" />
    <glyph glyph-name="Hbar" unicode="&#x126;" horiz-adv-x="1456" 
d="M1042 1434h279v-181h127v-209h-127v-1044h-279v625h-628v-625h-279v1044h-129v209h129v181h279v-181h628v181zM414 864h628v180h-628v-180z" />
    <glyph glyph-name="hbar" unicode="&#x127;" horiz-adv-x="1220" 
d="M125 0v1155h-150v176h150v119h258v-119h250v-176h-250v-283q51 85 136 131t192 46q173 0 279 -102t106 -271v-676h-258v612q0 95 -55 151t-150 56q-120 0 -185 -97.5t-65 -272.5v-449h-258z" />
    <glyph glyph-name="Itilde" unicode="&#x128;" horiz-adv-x="548" 
d="M135 0v1434h279v-1434h-279zM-125 1595q3 117 75 190t183 73q90 0 172 -56q5 -3 21 -13t20.5 -13t16.5 -9t19 -8t17 -4t21 -2q69 0 78 105l180 -27q-4 -118 -75.5 -191t-182.5 -73q-90 0 -172 55q-4 3 -16 11t-16 10.5t-13.5 8.5t-14 7.5t-12.5 5t-14 5t-13.5 2.5
t-15.5 1q-67 0 -82 -104z" />
    <glyph glyph-name="itilde" unicode="&#x129;" horiz-adv-x="507" 
d="M125 0v1032h258v-1032h-258zM-145 1194q3 117 75 189.5t183 72.5q92 0 172 -55q7 -4 21.5 -13.5t20 -12.5l16.5 -9t18 -8t17 -4t21 -2q69 0 78 104l180 -26q-4 -118 -76 -191.5t-182 -73.5q-89 0 -172 56q-5 3 -18.5 12t-17.5 12t-14.5 9t-16 8t-14 5t-16.5 4t-17 1
q-67 0 -82 -105z" />
    <glyph glyph-name="Imacron" unicode="&#x12a;" horiz-adv-x="548" 
d="M135 0v1434h279v-1434h-279zM-12 1597v199h569v-199h-569z" />
    <glyph glyph-name="imacron" unicode="&#x12b;" horiz-adv-x="507" 
d="M125 0v1032h258v-1032h-258zM-33 1196v199h570v-199h-570z" />
    <glyph glyph-name="Ibreve" unicode="&#x12c;" horiz-adv-x="548" 
d="M135 0v1434h279v-1434h-279zM-10 1819h190q0 -49 25.5 -79t66.5 -30q43 0 70 30t27 79h190q0 -119 -81.5 -198t-205.5 -79q-121 0 -201.5 79t-80.5 198z" />
    <glyph glyph-name="ibreve" unicode="&#x12d;" horiz-adv-x="507" 
d="M125 0v1032h258v-1032h-258zM-31 1417h191q0 -49 25.5 -78.5t66.5 -29.5q43 0 69.5 29.5t26.5 78.5h191q0 -119 -81.5 -197.5t-205.5 -78.5q-122 0 -202.5 79t-80.5 197z" />
    <glyph glyph-name="Iogonek" unicode="&#x12e;" horiz-adv-x="548" 
d="M135 0v1434h279v-1434q-70 -74 -70 -131q0 -35 21 -53.5t57 -18.5q35 0 51 4l25 -178q-54 -12 -115 -12q-110 0 -178 57.5t-68 149.5q0 42 21.5 92.5t54.5 89.5h-78z" />
    <glyph glyph-name="iogonek" unicode="&#x12f;" horiz-adv-x="507" 
d="M125 0v1032h258v-1032q-70 -74 -70 -131q0 -35 21 -53.5t57 -18.5q35 0 51 4l25 -178q-54 -12 -115 -12q-110 0 -178 57.5t-68 149.5q0 42 21.5 92.5t54.5 89.5h-57zM94 1350q0 66 45.5 111.5t114.5 45.5q70 0 117 -45.5t47 -111.5q0 -68 -47 -114t-117 -46
q-69 0 -114.5 46t-45.5 114z" />
    <glyph glyph-name="Idotaccent" unicode="&#x130;" horiz-adv-x="548" 
d="M135 0v1434h279v-1434h-279zM115 1751q0 67 45.5 112.5t113.5 45.5q70 0 117 -46t47 -112q0 -68 -47 -114t-117 -46q-69 0 -114 46t-45 114z" />
    <glyph glyph-name="dotlessi" unicode="&#x131;" horiz-adv-x="507" 
d="M125 0v1032h258v-1032h-258z" />
    <glyph glyph-name="IJ" unicode="&#x132;" horiz-adv-x="1290" 
d="M135 0v1434h279v-1434h-279zM600 6v240q50 -13 96 -13q96 0 143.5 48.5t47.5 158.5v994h266v-1000q0 -220 -107 -332t-292 -112q-84 0 -154 16z" />
    <glyph glyph-name="Jcircumflex" unicode="&#x134;" horiz-adv-x="741" 
d="M51 246q50 -13 96 -13q96 0 143.5 48.5t47.5 158.5v994h266v-1000q0 -220 -107 -332t-292 -112q-84 0 -154 16v240zM125 1548l233 303h220l233 -303h-188l-154 158l-156 -158h-188z" />
    <glyph glyph-name="jcircumflex" unicode="&#x135;" horiz-adv-x="516" 
d="M16 -389l-65 4l-6 223q23 -2 41 -2q75 0 113 49t38 140v1007h258v-1042q0 -172 -103.5 -275.5t-275.5 -103.5zM-78 1147l234 303h219l233 -303h-188l-154 158l-155 -158h-189z" />
    <glyph glyph-name="uni0136" unicode="&#x136;" horiz-adv-x="1376" 
d="M414 0h-279v1434h279v-568l534 568h367l-553 -574l604 -860h-348l-447 659l-157 -161v-498zM446 -389l80 303h281l-178 -303h-183z" />
    <glyph glyph-name="uni0137" unicode="&#x137;" horiz-adv-x="1148" 
d="M385 0h-260v1450h260v-784l389 366h328l-420 -407l453 -625h-312l-317 455l-121 -119v-336zM330 -389l80 303h280l-178 -303h-182z" />
    <glyph glyph-name="kgreenlandic" unicode="&#x138;" horiz-adv-x="1148" 
d="M385 1032v-368l391 368h324l-418 -405l453 -627h-312l-317 455l-121 -117v-338h-260v1032h260z" />
    <glyph glyph-name="Lacute" unicode="&#x139;" horiz-adv-x="1103" 
d="M135 0v1434h279v-1192h665v-242h-944zM152 1548l129 303h299l-246 -303h-182z" />
    <glyph glyph-name="lacute" unicode="&#x13a;" horiz-adv-x="507" 
d="M125 0v1450h258v-1450h-258zM129 1548l129 303h299l-246 -303h-182z" />
    <glyph glyph-name="uni013B" unicode="&#x13b;" horiz-adv-x="1103" 
d="M135 0v1434h279v-1192h665v-242h-944zM379 -389l80 303h280l-178 -303h-182z" />
    <glyph glyph-name="uni013C" unicode="&#x13c;" horiz-adv-x="507" 
d="M125 0v1450h258v-1450h-258zM37 -389l80 303h280l-178 -303h-182z" />
    <glyph glyph-name="Lcaron" unicode="&#x13d;" horiz-adv-x="1103" 
d="M135 0v1434h279v-1192h665v-242h-944zM520 1147l64 381h247l-161 -381h-150z" />
    <glyph glyph-name="lcaron" unicode="&#x13e;" horiz-adv-x="755" 
d="M125 0v1450h258v-1450h-258zM473 1147l64 381h247l-161 -381h-150z" />
    <glyph glyph-name="Ldot" unicode="&#x13f;" horiz-adv-x="1103" 
d="M135 0v1434h279v-1192h665v-242h-944zM637 754q0 67 46 112t114 45q69 0 114 -44.5t45 -112.5t-45 -113t-114 -45q-68 0 -114 45.5t-46 112.5z" />
    <glyph glyph-name="ldot" unicode="&#x140;" horiz-adv-x="919" 
d="M125 0v1450h258v-1450h-258zM475 717q0 67 46 112t114 45q69 0 114.5 -44.5t45.5 -112.5t-45.5 -113t-114.5 -45q-68 0 -114 45.5t-46 112.5z" />
    <glyph glyph-name="Lslash" unicode="&#x141;" horiz-adv-x="1103" 
d="M729 797l-315 -148v-407h665v-242h-944v518l-172 -80v219l172 80v697h279v-568l315 148v-217z" />
    <glyph glyph-name="lslash" unicode="&#x142;" horiz-adv-x="634" 
d="M625 788l-179 -83v-705h-258v584l-176 -82v219l176 82v647h258v-526l179 84v-220z" />
    <glyph glyph-name="Nacute" unicode="&#x143;" horiz-adv-x="1429" 
d="M135 0v1434h283l614 -996v996h260v-1434h-282l-613 993v-993h-262zM592 1548l129 303h299l-246 -303h-182z" />
    <glyph glyph-name="nacute" unicode="&#x144;" horiz-adv-x="1212" 
d="M125 0v1032h258v-155q52 78 137.5 125t190.5 47q169 0 272.5 -102.5t103.5 -270.5v-676h-258v614q0 92 -53 148.5t-143 56.5q-118 0 -184 -96.5t-66 -269.5v-453h-258zM479 1147l129 303h299l-245 -303h-183z" />
    <glyph glyph-name="uni0145" unicode="&#x145;" horiz-adv-x="1429" 
d="M135 0v1434h283l614 -996v996h260v-1434h-282l-613 993v-993h-262zM502 -389l80 303h280l-178 -303h-182z" />
    <glyph glyph-name="uni0146" unicode="&#x146;" horiz-adv-x="1212" 
d="M125 0v1032h258v-155q52 78 137.5 125t190.5 47q169 0 272.5 -102.5t103.5 -270.5v-676h-258v614q0 92 -53 148.5t-143 56.5q-118 0 -184 -96.5t-66 -269.5v-453h-258zM387 -389l80 303h281l-179 -303h-182z" />
    <glyph glyph-name="Ncaron" unicode="&#x147;" horiz-adv-x="1429" 
d="M135 0v1434h283l614 -996v996h260v-1434h-282l-613 993v-993h-262zM371 1851h188l156 -157l153 157h189l-234 -303h-219z" />
    <glyph glyph-name="ncaron" unicode="&#x148;" horiz-adv-x="1212" 
d="M125 0v1032h258v-155q52 78 137.5 125t190.5 47q169 0 272.5 -102.5t103.5 -270.5v-676h-258v614q0 92 -53 148.5t-143 56.5q-118 0 -184 -96.5t-66 -269.5v-453h-258zM258 1450h188l156 -158l154 158h188l-233 -303h-219z" />
    <glyph glyph-name="napostrophe" unicode="&#x149;" horiz-adv-x="1220" 
d="M125 1147l63 381h248l-162 -381h-149zM133 0v1032h258v-155q52 78 137.5 125t190.5 47q169 0 273 -102.5t104 -270.5v-676h-258v614q0 92 -53.5 148.5t-143.5 56.5q-118 0 -184 -96.5t-66 -269.5v-453h-258z" />
    <glyph glyph-name="Eng" unicode="&#x14a;" horiz-adv-x="1429" 
d="M842 -199q97 -9 143 34.5t49 150.5l-637 1007v-993h-262v1434h283l614 -996v996h260v-1485q0 -176 -124.5 -282t-325.5 -91v225z" />
    <glyph glyph-name="eng" unicode="&#x14b;" horiz-adv-x="1212" 
d="M680 -389q-29 0 -43 2l-4 225q10 -2 37 -2q83 2 121 49.5t38 151.5v577q0 92 -53 148.5t-143 56.5q-118 0 -184 -96.5t-66 -269.5v-453h-258v1032h258v-155q52 78 137.5 125t190.5 47q169 0 272.5 -102.5t103.5 -270.5v-711q0 -158 -112 -256t-295 -98z" />
    <glyph glyph-name="Omacron" unicode="&#x14c;" horiz-adv-x="1595" 
d="M799 -16q-155 0 -290.5 55.5t-231 152t-150.5 232.5t-55 293t55 293t150.5 232.5t231 152t290.5 55.5t289.5 -55.5t230 -152t150.5 -232.5t55 -293t-55 -293t-150.5 -232.5t-230 -152t-289.5 -55.5zM352 717q0 -214 126 -353t321 -139t319.5 139t124.5 353t-125 353.5
t-319 139.5q-195 0 -321 -139.5t-126 -353.5zM514 1597v199h569v-199h-569z" />
    <glyph glyph-name="omacron" unicode="&#x14d;" horiz-adv-x="1216" 
d="M608 -16q-234 0 -386 150.5t-152 381.5t152 382t386 151t386.5 -151t152.5 -382t-152.5 -381.5t-386.5 -150.5zM324 1196v199h569v-199h-569zM330 516q0 -138 76 -223.5t202 -85.5q125 0 202 85.5t77 223.5t-77 223.5t-202 85.5q-126 0 -202 -85.5t-76 -223.5z" />
    <glyph glyph-name="Obreve" unicode="&#x14e;" horiz-adv-x="1595" 
d="M799 -16q-155 0 -290.5 55.5t-231 152t-150.5 232.5t-55 293t55 293t150.5 232.5t231 152t290.5 55.5t289.5 -55.5t230 -152t150.5 -232.5t55 -293t-55 -293t-150.5 -232.5t-230 -152t-289.5 -55.5zM352 717q0 -214 126 -353t321 -139t319.5 139t124.5 353t-125 353.5
t-319 139.5q-195 0 -321 -139.5t-126 -353.5zM516 1819h191q0 -49 25.5 -79t66.5 -30q43 0 69.5 30t26.5 79h190q0 -119 -81 -198t-205 -79q-121 0 -202 79t-81 198z" />
    <glyph glyph-name="obreve" unicode="&#x14f;" horiz-adv-x="1216" 
d="M608 -16q-234 0 -386 150.5t-152 381.5t152 382t386 151t386.5 -151t152.5 -382t-152.5 -381.5t-386.5 -150.5zM326 1417h190q0 -49 25.5 -78.5t66.5 -29.5q43 0 70 29.5t27 78.5h190q0 -119 -81.5 -197.5t-205.5 -78.5q-121 0 -201.5 78.5t-80.5 197.5zM330 516
q0 -138 76 -223.5t202 -85.5q125 0 202 85.5t77 223.5t-77 223.5t-202 85.5q-126 0 -202 -85.5t-76 -223.5z" />
    <glyph glyph-name="Ohungarumlaut" unicode="&#x150;" horiz-adv-x="1595" 
d="M799 -16q-155 0 -290.5 55.5t-231 152t-150.5 232.5t-55 293t55 293t150.5 232.5t231 152t290.5 55.5t289.5 -55.5t230 -152t150.5 -232.5t55 -293t-55 -293t-150.5 -232.5t-230 -152t-289.5 -55.5zM352 717q0 -214 126 -353t321 -139t319.5 139t124.5 353t-125 353.5
t-319 139.5q-195 0 -321 -139.5t-126 -353.5zM504 1548l129 303h221l-145 -303h-205zM840 1548l129 303h233l-158 -303h-204z" />
    <glyph glyph-name="ohungarumlaut" unicode="&#x151;" horiz-adv-x="1216" 
d="M608 -16q-234 0 -386 150.5t-152 381.5t152 382t386 151t386.5 -151t152.5 -382t-152.5 -381.5t-386.5 -150.5zM313 1147l129 303h222l-146 -303h-205zM330 516q0 -138 76 -223.5t202 -85.5q125 0 202 85.5t77 223.5t-77 223.5t-202 85.5q-126 0 -202 -85.5t-76 -223.5z
M649 1147l129 303h234l-158 -303h-205z" />
    <glyph glyph-name="OE" unicode="&#x152;" horiz-adv-x="2308" 
d="M799 -16q-155 0 -290.5 55.5t-231 152t-150.5 232.5t-55 293t55 293t150.5 232.5t231 152t290.5 55.5q261 0 456 -152v136h959v-240h-680v-315h545v-242h-545v-395h702v-242h-981v135q-193 -151 -456 -151zM352 717q0 -214 126 -353t321 -139t319.5 139t124.5 353
t-125 353.5t-319 139.5q-195 0 -321 -139.5t-126 -353.5z" />
    <glyph glyph-name="oe" unicode="&#x153;" horiz-adv-x="1990" 
d="M608 -16q-234 0 -386 150.5t-152 381.5t152 382t386 151q124 0 228 -45.5t178 -126.5q145 172 389 172q125 0 226.5 -43.5t163.5 -115.5t95 -159.5t33 -179.5q0 -62 -4 -102h-766q17 -117 88.5 -182.5t181.5 -65.5q91 0 152.5 41t81.5 116l241 -65q-43 -146 -170 -227.5
t-309 -81.5q-253 0 -399 176q-73 -84 -178.5 -130t-231.5 -46zM330 516q0 -138 76 -223.5t202 -85.5q125 0 202 85.5t77 223.5t-77 223.5t-202 85.5q-126 0 -202 -85.5t-76 -223.5zM1157 637h488q-9 97 -71.5 156t-170.5 59q-96 0 -160 -55.5t-86 -159.5z" />
    <glyph glyph-name="Racute" unicode="&#x154;" horiz-adv-x="1331" 
d="M137 0l-2 1434h553q211 0 337 -115.5t126 -308.5q0 -121 -59.5 -218.5t-165.5 -150.5l381 -641h-326l-338 588h-227v-588h-279zM416 827h229q107 0 166 48.5t59 134.5q0 87 -59 135.5t-166 48.5h-229v-367zM473 1548l129 303h299l-246 -303h-182z" />
    <glyph glyph-name="racute" unicode="&#x155;" horiz-adv-x="831" 
d="M791 782q-58 25 -132 25q-119 0 -197.5 -106t-78.5 -322v-379h-258v1032h258v-188q38 88 127.5 146.5t183.5 58.5q60 0 113 -17zM338 1147l129 303h299l-246 -303h-182z" />
    <glyph glyph-name="uni0156" unicode="&#x156;" horiz-adv-x="1331" 
d="M137 0l-2 1434h553q211 0 337 -115.5t126 -308.5q0 -121 -59.5 -218.5t-165.5 -150.5l381 -641h-326l-338 588h-227v-588h-279zM416 827h229q107 0 166 48.5t59 134.5q0 87 -59 135.5t-166 48.5h-229v-367zM432 -389l80 303h281l-179 -303h-182z" />
    <glyph glyph-name="uni0157" unicode="&#x157;" horiz-adv-x="831" 
d="M791 782q-58 25 -132 25q-119 0 -197.5 -106t-78.5 -322v-379h-258v1032h258v-188q38 88 127.5 146.5t183.5 58.5q60 0 113 -17zM31 -389l80 303h280l-178 -303h-182z" />
    <glyph glyph-name="Rcaron" unicode="&#x158;" horiz-adv-x="1331" 
d="M137 0l-2 1434h553q211 0 337 -115.5t126 -308.5q0 -121 -59.5 -218.5t-165.5 -150.5l381 -641h-326l-338 588h-227v-588h-279zM252 1851h188l156 -157l154 157h188l-233 -303h-220zM416 827h229q107 0 166 48.5t59 134.5q0 87 -59 135.5t-166 48.5h-229v-367z" />
    <glyph glyph-name="rcaron" unicode="&#x159;" horiz-adv-x="831" 
d="M791 782q-58 25 -132 25q-119 0 -197.5 -106t-78.5 -322v-379h-258v1032h258v-188q38 88 127.5 146.5t183.5 58.5q60 0 113 -17zM117 1450h188l156 -158l153 158h189l-234 -303h-219z" />
    <glyph glyph-name="Sacute" unicode="&#x15a;" horiz-adv-x="1210" 
d="M606 -16q-140 0 -260.5 58t-198 161t-94.5 231l248 76q17 -128 105.5 -208.5t209.5 -80.5q113 0 180.5 49t67.5 131q0 49 -26 86.5t-70 61.5t-101 43.5t-120 38t-126 40t-120 54t-101 75t-70 108.5t-26 149q0 113 65 203t179 140t254 50q204 0 351.5 -100t181.5 -263
l-250 -102q-22 105 -97 166t-186 61q-103 0 -162 -41.5t-59 -113.5q0 -41 26 -71t70.5 -49t102 -34.5t121 -32t127 -37.5t121 -56t102 -82t70.5 -120.5t26 -166.5q0 -190 -149 -307t-392 -117zM477 1548l129 303h299l-246 -303h-182z" />
    <glyph glyph-name="sacute" unicode="&#x15b;" horiz-adv-x="944" 
d="M485 -16q-90 0 -168 26t-132.5 70t-92 97t-57.5 112l211 86q25 -84 86 -137.5t153 -53.5q71 0 115.5 33.5t44.5 83.5q0 35 -24 60t-64 39t-90.5 29t-103 28t-103 37.5t-90.5 56t-64 85.5t-24 124q0 124 101 206.5t266 82.5q151 0 266 -70t149 -182l-209 -88
q-21 70 -78 109.5t-124 39.5q-62 0 -100 -25t-38 -69q0 -32 24.5 -54.5t64.5 -34.5t91 -25t104 -25t104 -37t91 -58.5t64.5 -91t24.5 -133.5q0 -136 -111 -228.5t-287 -92.5zM342 1147l129 303h299l-246 -303h-182z" />
    <glyph glyph-name="Scircumflex" unicode="&#x15c;" horiz-adv-x="1210" 
d="M606 -16q-140 0 -260.5 58t-198 161t-94.5 231l248 76q17 -128 105.5 -208.5t209.5 -80.5q113 0 180.5 49t67.5 131q0 49 -26 86.5t-70 61.5t-101 43.5t-120 38t-126 40t-120 54t-101 75t-70 108.5t-26 149q0 113 65 203t179 140t254 50q204 0 351.5 -100t181.5 -263
l-250 -102q-22 105 -97 166t-186 61q-103 0 -162 -41.5t-59 -113.5q0 -41 26 -71t70.5 -49t102 -34.5t121 -32t127 -37.5t121 -56t102 -82t70.5 -120.5t26 -166.5q0 -190 -149 -307t-392 -117zM254 1548l233 303h220l233 -303h-188l-154 158l-156 -158h-188z" />
    <glyph glyph-name="scircumflex" unicode="&#x15d;" horiz-adv-x="944" 
d="M485 -16q-90 0 -168 26t-132.5 70t-92 97t-57.5 112l211 86q25 -84 86 -137.5t153 -53.5q71 0 115.5 33.5t44.5 83.5q0 35 -24 60t-64 39t-90.5 29t-103 28t-103 37.5t-90.5 56t-64 85.5t-24 124q0 124 101 206.5t266 82.5q151 0 266 -70t149 -182l-209 -88
q-21 70 -78 109.5t-124 39.5q-62 0 -100 -25t-38 -69q0 -32 24.5 -54.5t64.5 -34.5t91 -25t104 -25t104 -37t91 -58.5t64.5 -91t24.5 -133.5q0 -136 -111 -228.5t-287 -92.5zM119 1147l233 303h219l234 -303h-189l-153 158l-156 -158h-188z" />
    <glyph glyph-name="Scedilla" unicode="&#x15e;" horiz-adv-x="1210" 
d="M53 434l248 76q17 -128 105.5 -208.5t209.5 -80.5q113 0 180.5 49t67.5 131q0 49 -26 86.5t-70 61.5t-101 43.5t-120 38t-126 40t-120 54t-101 75t-70 108.5t-26 149q0 113 65 203t179 140t254 50q204 0 351.5 -100t181.5 -263l-250 -102q-22 105 -97 166t-186 61
q-103 0 -162 -41.5t-59 -113.5q0 -41 26 -71t70.5 -49t102 -34.5t121 -32t127 -37.5t121 -56t102 -82t70.5 -120.5t26 -166.5q0 -165 -114.5 -276.5t-309.5 -139.5l-127 -295h-301l235 291q-188 23 -321 146t-156 300z" />
    <glyph glyph-name="scedilla" unicode="&#x15f;" horiz-adv-x="944" 
d="M35 289l211 86q25 -84 86 -137.5t153 -53.5q71 0 115.5 33.5t44.5 83.5q0 35 -24 60t-64 39t-90.5 29t-103 28t-103 37.5t-90.5 56t-64 85.5t-24 124q0 124 101 206.5t266 82.5q151 0 266 -70t149 -182l-209 -88q-21 70 -78 109.5t-124 39.5q-62 0 -100 -25t-38 -69
q0 -32 24.5 -54.5t64.5 -34.5t91 -25t104 -25t104 -37t91 -58.5t64.5 -91t24.5 -133.5q0 -116 -83 -202t-220 -111l-127 -295h-301l239 295q-137 23 -228 106t-128 191z" />
    <glyph glyph-name="Scaron" unicode="&#x160;" horiz-adv-x="1210" 
d="M606 -16q-140 0 -260.5 58t-198 161t-94.5 231l248 76q17 -128 105.5 -208.5t209.5 -80.5q113 0 180.5 49t67.5 131q0 49 -26 86.5t-70 61.5t-101 43.5t-120 38t-126 40t-120 54t-101 75t-70 108.5t-26 149q0 113 65 203t179 140t254 50q204 0 351.5 -100t181.5 -263
l-250 -102q-22 105 -97 166t-186 61q-103 0 -162 -41.5t-59 -113.5q0 -41 26 -71t70.5 -49t102 -34.5t121 -32t127 -37.5t121 -56t102 -82t70.5 -120.5t26 -166.5q0 -190 -149 -307t-392 -117zM256 1851h188l156 -157l154 157h188l-233 -303h-220z" />
    <glyph glyph-name="scaron" unicode="&#x161;" horiz-adv-x="944" 
d="M485 -16q-90 0 -168 26t-132.5 70t-92 97t-57.5 112l211 86q25 -84 86 -137.5t153 -53.5q71 0 115.5 33.5t44.5 83.5q0 35 -24 60t-64 39t-90.5 29t-103 28t-103 37.5t-90.5 56t-64 85.5t-24 124q0 124 101 206.5t266 82.5q151 0 266 -70t149 -182l-209 -88
q-21 70 -78 109.5t-124 39.5q-62 0 -100 -25t-38 -69q0 -32 24.5 -54.5t64.5 -34.5t91 -25t104 -25t104 -37t91 -58.5t64.5 -91t24.5 -133.5q0 -136 -111 -228.5t-287 -92.5zM121 1450h188l156 -158l153 158h189l-234 -303h-219z" />
    <glyph glyph-name="uni0162" unicode="&#x162;" horiz-adv-x="1206" 
d="M465 0v1194h-432v240h1143v-240h-433v-1194l-131 -303h-301l246 303h-92z" />
    <glyph glyph-name="uni0163" unicode="&#x163;" horiz-adv-x="790" 
d="M737 10q-74 -26 -162 -26l-124 -287h-301l256 315q-94 36 -146.5 118.5t-52.5 207.5v477h-174v217h174v303h258v-303h260v-217h-260v-453q0 -72 36 -111.5t97 -39.5q70 0 121 25z" />
    <glyph glyph-name="Tcaron" unicode="&#x164;" horiz-adv-x="1206" 
d="M465 0v1194h-432v240h1143v-240h-433v-1194h-278zM260 1851h189l155 -157l154 157h188l-233 -303h-219z" />
    <glyph glyph-name="tcaron" unicode="&#x165;" horiz-adv-x="790" 
d="M737 10q-74 -26 -166 -26q-164 0 -264 89.5t-100 264.5v477h-174v217h174v303h258v-303h260v-217h-260v-453q0 -72 36 -111.5t97 -39.5q70 0 121 25zM598 1147l64 381h247l-161 -381h-150z" />
    <glyph glyph-name="Tbar" unicode="&#x166;" horiz-adv-x="1177" 
d="M100 684v211h365v299h-432v240h1143v-240h-433v-299h336v-211h-336v-684h-278v684h-365z" />
    <glyph glyph-name="tbar" unicode="&#x167;" horiz-adv-x="790" 
d="M737 10q-74 -26 -166 -26q-164 0 -264 89.5t-100 264.5v92h-168v176h168v209h-174v217h174v303h258v-303h260v-217h-260v-209h231v-176h-231v-68q0 -72 36 -111.5t97 -39.5q70 0 121 25z" />
    <glyph glyph-name="Utilde" unicode="&#x168;" horiz-adv-x="1400" 
d="M700 -16q-259 0 -412 139t-153 397v914h262v-916q0 -142 82.5 -216.5t220.5 -74.5q140 0 223 74.5t83 216.5v916h260v-914q0 -258 -153.5 -397t-412.5 -139zM301 1595q3 117 75 190t183 73q90 0 172 -56q5 -3 21 -13t20.5 -13t16.5 -9t19 -8t17 -4t21 -2q69 0 78 105
l180 -27q-4 -118 -75.5 -191t-182.5 -73q-90 0 -172 55q-4 3 -16 11t-16 10.5t-13.5 8.5t-14 7.5t-12.5 5t-14 5t-13.5 2.5t-15.5 1q-67 0 -82 -104z" />
    <glyph glyph-name="utilde" unicode="&#x169;" horiz-adv-x="1212" 
d="M1087 1032v-1032h-258v156q-52 -78 -137 -125t-190 -47q-169 0 -273 102t-104 270v676h258v-614q0 -92 53.5 -148.5t143.5 -56.5q118 0 183.5 96.5t65.5 270.5v452h258zM199 1194q3 117 75 189.5t183 72.5q92 0 172 -55q7 -4 21.5 -13.5t20 -12.5l16.5 -9t18 -8t17 -4
t21 -2q69 0 78 104l180 -26q-4 -118 -76 -191.5t-182 -73.5q-89 0 -172 56q-5 3 -18.5 12t-17.5 12t-14.5 9t-16 8t-14 5t-16.5 4t-17 1q-67 0 -82 -105z" />
    <glyph glyph-name="Umacron" unicode="&#x16a;" horiz-adv-x="1400" 
d="M700 -16q-259 0 -412 139t-153 397v914h262v-916q0 -142 82.5 -216.5t220.5 -74.5q140 0 223 74.5t83 216.5v916h260v-914q0 -258 -153.5 -397t-412.5 -139zM416 1597v199h569v-199h-569z" />
    <glyph glyph-name="umacron" unicode="&#x16b;" horiz-adv-x="1212" 
d="M1087 1032v-1032h-258v156q-52 -78 -137 -125t-190 -47q-169 0 -273 102t-104 270v676h258v-614q0 -92 53.5 -148.5t143.5 -56.5q118 0 183.5 96.5t65.5 270.5v452h258zM311 1196v199h570v-199h-570z" />
    <glyph glyph-name="Ubreve" unicode="&#x16c;" horiz-adv-x="1400" 
d="M700 -16q-259 0 -412 139t-153 397v914h262v-916q0 -142 82.5 -216.5t220.5 -74.5q140 0 223 74.5t83 216.5v916h260v-914q0 -258 -153.5 -397t-412.5 -139zM418 1819h190q0 -49 25.5 -79t66.5 -30q43 0 70 30t27 79h190q0 -119 -81.5 -198t-205.5 -79q-121 0 -201.5 79
t-80.5 198z" />
    <glyph glyph-name="ubreve" unicode="&#x16d;" horiz-adv-x="1212" 
d="M1087 1032v-1032h-258v156q-52 -78 -137 -125t-190 -47q-169 0 -273 102t-104 270v676h258v-614q0 -92 53.5 -148.5t143.5 -56.5q118 0 183.5 96.5t65.5 270.5v452h258zM313 1417h191q0 -49 25.5 -78.5t66.5 -29.5q43 0 69.5 29.5t26.5 78.5h191q0 -119 -81.5 -197.5
t-205.5 -78.5q-122 0 -202.5 79t-80.5 197z" />
    <glyph glyph-name="Uring" unicode="&#x16e;" horiz-adv-x="1400" 
d="M700 -16q-259 0 -412 139t-153 397v914h262v-916q0 -142 82.5 -216.5t220.5 -74.5q140 0 223 74.5t83 216.5v916h260v-914q0 -258 -153.5 -397t-412.5 -139zM463 1733q0 97 67 161t170 64q104 0 172 -64t68 -161q0 -96 -68 -160t-172 -64q-102 0 -169.5 64t-67.5 160z
M604 1733q0 -41 27 -67t69 -26q43 0 71 26t28 67t-28 67.5t-71 26.5q-41 0 -68.5 -26.5t-27.5 -67.5z" />
    <glyph glyph-name="uring" unicode="&#x16f;" horiz-adv-x="1212" 
d="M1087 1032v-1032h-258v156q-52 -78 -137 -125t-190 -47q-169 0 -273 102t-104 270v676h258v-614q0 -92 53.5 -148.5t143.5 -56.5q118 0 183.5 96.5t65.5 270.5v452h258zM360 1331q0 97 67.5 161t170.5 64q104 0 172 -64t68 -161q0 -96 -68 -159.5t-172 -63.5
q-102 0 -170 64t-68 159zM502 1331q0 -41 27 -66.5t69 -25.5q43 0 70.5 25.5t27.5 66.5t-27.5 67.5t-70.5 26.5q-41 0 -68.5 -26.5t-27.5 -67.5z" />
    <glyph glyph-name="Uhungarumlaut" unicode="&#x170;" horiz-adv-x="1400" 
d="M700 -16q-259 0 -412 139t-153 397v914h262v-916q0 -142 82.5 -216.5t220.5 -74.5q140 0 223 74.5t83 216.5v916h260v-914q0 -258 -153.5 -397t-412.5 -139zM403 1548l129 303h222l-146 -303h-205zM739 1548l129 303h234l-158 -303h-205z" />
    <glyph glyph-name="uhungarumlaut" unicode="&#x171;" horiz-adv-x="1212" 
d="M1087 1032v-1032h-258v156q-52 -78 -137 -125t-190 -47q-169 0 -273 102t-104 270v676h258v-614q0 -92 53.5 -148.5t143.5 -56.5q118 0 183.5 96.5t65.5 270.5v452h258zM301 1147l129 303h221l-145 -303h-205zM637 1147l129 303h233l-157 -303h-205z" />
    <glyph glyph-name="Uogonek" unicode="&#x172;" horiz-adv-x="1400" 
d="M743 -389q-110 0 -177.5 57.5t-67.5 149.5q0 40 20 88.5t51 87.5q-202 33 -318 168t-116 358v914h262v-916q0 -142 82.5 -216.5t220.5 -74.5q140 0 223 74.5t83 216.5v916h260v-914q0 -242 -136 -380.5t-368 -153.5q-57 -65 -57 -117q0 -35 20.5 -53.5t56.5 -18.5t52 4
l24 -178q-54 -12 -115 -12z" />
    <glyph glyph-name="uogonek" unicode="&#x173;" horiz-adv-x="1212" 
d="M1087 1032v-1032h-10q-69 -73 -69 -131q0 -35 20.5 -53.5t56.5 -18.5t52 4l24 -178q-54 -12 -114 -12q-110 0 -178 57.5t-68 149.5q0 42 21.5 92.5t54.5 89.5h-48v156q-52 -78 -137 -125t-190 -47q-169 0 -273 102t-104 270v676h258v-614q0 -92 53.5 -148.5t143.5 -56.5
q118 0 183.5 96.5t65.5 270.5v452h258z" />
    <glyph glyph-name="Wcircumflex" unicode="&#x174;" horiz-adv-x="2066" 
d="M449 0l-418 1434h286l277 -1102l280 1102h316l283 -1102l276 1102h287l-414 -1434h-295l-293 1051l-295 -1051h-290zM690 1548l234 303h219l233 -303h-188l-154 158l-155 -158h-189z" />
    <glyph glyph-name="wcircumflex" unicode="&#x175;" 
d="M367 0l-322 1032h260l178 -672l207 672h236l207 -672l176 672h260l-320 -1032h-231l-209 674l-213 -674h-229zM463 1147l233 303h219l234 -303h-188l-154 158l-156 -158h-188z" />
    <glyph glyph-name="Ycircumflex" unicode="&#x176;" horiz-adv-x="1271" 
d="M496 0v594l-492 840h299l332 -578l334 578h299l-494 -840v-594h-278zM289 1548l233 303h219l234 -303h-189l-153 158l-156 -158h-188z" />
    <glyph glyph-name="ycircumflex" unicode="&#x177;" horiz-adv-x="1081" 
d="M801 1032h264l-545 -1405h-262l160 414l-402 991h281l248 -663zM195 1147l233 303h219l234 -303h-189l-153 158l-156 -158h-188z" />
    <glyph glyph-name="Ydieresis" unicode="&#x178;" horiz-adv-x="1271" 
d="M496 0v594l-492 840h299l332 -578l334 578h299l-494 -840v-594h-278zM293 1720q0 59 40.5 100.5t100.5 41.5q63 0 105.5 -41.5t42.5 -100.5q0 -60 -42.5 -101.5t-105.5 -41.5q-60 0 -100.5 41.5t-40.5 101.5zM688 1720q0 59 41 100.5t102 41.5t103.5 -41.5t42.5 -100.5
q0 -60 -42.5 -101.5t-103.5 -41.5t-102 41.5t-41 101.5z" />
    <glyph glyph-name="Zacute" unicode="&#x179;" horiz-adv-x="1232" 
d="M53 0v225l781 969h-742v240h1061v-226l-770 -966h774v-242h-1104zM496 1548l129 303h299l-246 -303h-182z" />
    <glyph glyph-name="zacute" unicode="&#x17a;" horiz-adv-x="1013" 
d="M63 0v197l560 618h-525v217h840v-196l-555 -619h567v-217h-887zM414 1147l129 303h299l-246 -303h-182z" />
    <glyph glyph-name="Zdotaccent" unicode="&#x17b;" horiz-adv-x="1232" 
d="M53 0v225l781 969h-742v240h1061v-226l-770 -966h774v-242h-1104zM459 1751q0 67 45.5 112.5t113.5 45.5q70 0 117 -46t47 -112q0 -68 -47 -114t-117 -46q-69 0 -114 46t-45 114z" />
    <glyph glyph-name="zdotaccent" unicode="&#x17c;" horiz-adv-x="1013" 
d="M63 0v197l560 618h-525v217h840v-196l-555 -619h567v-217h-887zM377 1350q0 66 45.5 111.5t114.5 45.5q70 0 116.5 -45.5t46.5 -111.5q0 -68 -46.5 -114t-116.5 -46q-69 0 -114.5 46t-45.5 114z" />
    <glyph glyph-name="Zcaron" unicode="&#x17d;" horiz-adv-x="1232" 
d="M53 0v225l781 969h-742v240h1061v-226l-770 -966h774v-242h-1104zM274 1851h189l155 -157l154 157h189l-234 -303h-219z" />
    <glyph glyph-name="zcaron" unicode="&#x17e;" horiz-adv-x="1013" 
d="M63 0v197l560 618h-525v217h840v-196l-555 -619h567v-217h-887zM193 1450h188l156 -158l153 158h189l-234 -303h-219z" />
    <glyph glyph-name="longs" unicode="&#x17f;" horiz-adv-x="774" 
d="M217 0v827h-166v205h166v80q0 177 101.5 275t263.5 98q78 0 155 -23l-16 -213q-55 21 -105 21q-64 0 -104.5 -43.5t-40.5 -118.5v-1108h-254z" />
    <glyph glyph-name="florin" unicode="&#x192;" horiz-adv-x="989" 
d="M928 1032v-205h-293l-70 -471q-28 -184 -119.5 -278t-244.5 -94q-82 0 -156 22l16 213q53 -20 105 -20q121 0 145 161l70 467h-193v205h224l12 80q57 373 364 373q77 0 154 -23l-16 -213q-52 21 -103 21q-123 0 -147 -162l-10 -76h262z" />
    <glyph glyph-name="Aringacute" unicode="&#x1fa;" horiz-adv-x="1390" 
d="M696 1069l-190 -516h381zM14 0l551 1434h260l551 -1434h-286l-117 317h-555l-117 -317h-287zM459 1733q0 76 42.5 133.5t112.5 79.5l123 286h299l-237 -293q63 -26 100 -81t37 -125q0 -96 -68 -160t-172 -64q-102 0 -169.5 64t-67.5 160zM600 1733q0 -41 27 -67t69 -26
q43 0 71 26t28 67t-28 67.5t-71 26.5q-41 0 -68.5 -26.5t-27.5 -67.5z" />
    <glyph glyph-name="aringacute" unicode="&#x1fb;" horiz-adv-x="1103" 
d="M727 664q0 87 -55.5 137.5t-149.5 50.5q-85 0 -140.5 -48.5t-64.5 -131.5l-229 41q24 152 145.5 244t288.5 92q207 0 331 -109.5t124 -310.5v-629h-250v150q-43 -75 -128 -120.5t-181 -45.5q-151 0 -247.5 87t-96.5 220q0 151 114.5 235t346.5 109l192 18v11zM295 1331
q0 84 51 144t135 77l121 285h299l-246 -303h-14q60 -26 95.5 -80.5t35.5 -122.5q0 -96 -68 -159.5t-172 -63.5q-102 0 -169.5 63.5t-67.5 159.5zM324 299q0 -55 41 -90t110 -35q117 0 184.5 77t67.5 195v23l-197 -23q-100 -12 -153 -51t-53 -96zM436 1331q0 -41 27 -66.5
t69 -25.5q43 0 71 25.5t28 66.5t-28 67.5t-71 26.5q-41 0 -68.5 -26.5t-27.5 -67.5z" />
    <glyph glyph-name="AEacute" unicode="&#x1fc;" horiz-adv-x="2011" 
d="M317 0h-305l770 1434h1133v-240h-680v-315h545v-242h-545v-395h702v-242h-981v332h-464zM618 573h338v646zM946 1548l129 303h299l-246 -303h-182z" />
    <glyph glyph-name="aeacute" unicode="&#x1fd;" horiz-adv-x="1851" 
d="M748 664q0 87 -60.5 139.5t-159.5 52.5q-86 0 -145.5 -50.5t-65.5 -125.5l-219 43q25 145 144.5 235.5t285.5 90.5q246 0 373 -142q142 142 363 142q125 0 226.5 -43.5t163.5 -115.5t95 -159.5t33 -179.5q0 -62 -4 -102h-766q17 -117 88.5 -182.5t181.5 -65.5
q91 0 152.5 41t81.5 116l241 -65q-43 -146 -170 -227.5t-309 -81.5q-133 0 -237 50.5t-173 139.5q-137 -190 -403 -190q-181 0 -286 86t-105 221q0 157 122 248.5t355 91.5h197v33zM324 297q0 -55 46.5 -91t118.5 -36q120 0 189.5 77t69.5 195v7h-207q-104 0 -160.5 -42.5
t-56.5 -109.5zM848 1147l129 303h299l-246 -303h-182zM1018 637h487q-9 97 -71 156t-170 59q-96 0 -160 -55.5t-86 -159.5z" />
    <glyph glyph-name="uni0218" unicode="&#x218;" horiz-adv-x="1210" 
d="M606 -16q-140 0 -260.5 58t-198 161t-94.5 231l248 76q17 -128 105.5 -208.5t209.5 -80.5q113 0 180.5 49t67.5 131q0 49 -26 86.5t-70 61.5t-101 43.5t-120 38t-126 40t-120 54t-101 75t-70 108.5t-26 149q0 113 65 203t179 140t254 50q204 0 351.5 -100t181.5 -263
l-250 -102q-22 105 -97 166t-186 61q-103 0 -162 -41.5t-59 -113.5q0 -41 26 -71t70.5 -49t102 -34.5t121 -32t127 -37.5t121 -56t102 -82t70.5 -120.5t26 -166.5q0 -190 -149 -307t-392 -117zM373 -389l80 303h280l-178 -303h-182z" />
    <glyph glyph-name="uni0219" unicode="&#x219;" horiz-adv-x="944" 
d="M485 -16q-90 0 -168 26t-132.5 70t-92 97t-57.5 112l211 86q25 -84 86 -137.5t153 -53.5q71 0 115.5 33.5t44.5 83.5q0 35 -24 60t-64 39t-90.5 29t-103 28t-103 37.5t-90.5 56t-64 85.5t-24 124q0 124 101 206.5t266 82.5q151 0 266 -70t149 -182l-209 -88
q-21 70 -78 109.5t-124 39.5q-62 0 -100 -25t-38 -69q0 -32 24.5 -54.5t64.5 -34.5t91 -25t104 -25t104 -37t91 -58.5t64.5 -91t24.5 -133.5q0 -136 -111 -228.5t-287 -92.5zM231 -389l80 303h281l-178 -303h-183z" />
    <glyph glyph-name="uni021A" unicode="&#x21a;" horiz-adv-x="1206" 
d="M465 0v1194h-432v240h1143v-240h-433v-1194h-278zM389 -389l80 303h281l-179 -303h-182z" />
    <glyph glyph-name="uni021B" unicode="&#x21b;" horiz-adv-x="790" 
d="M737 10q-74 -26 -166 -26q-164 0 -264 89.5t-100 264.5v477h-174v217h174v303h258v-303h260v-217h-260v-453q0 -72 36 -111.5t97 -39.5q70 0 121 25zM229 -389l80 303h281l-178 -303h-183z" />
    <glyph glyph-name="uni0237" unicode="&#x237;" horiz-adv-x="516" 
d="M16 -389l-65 4l-6 223q23 -2 41 -2q75 0 113 49t38 140v1007h258v-1042q0 -172 -103.5 -275.5t-275.5 -103.5z" />
    <glyph glyph-name="uni02BC" unicode="&#x2bc;" horiz-adv-x="516" 
d="M102 1147l64 381h248l-162 -381h-150z" />
    <glyph glyph-name="circumflex" unicode="&#x2c6;" horiz-adv-x="890" 
d="M336 1450h219l233 -303h-188l-154 158l-155 -158h-189z" />
    <glyph glyph-name="caron" unicode="&#x2c7;" horiz-adv-x="890" 
d="M336 1147l-234 303h189l155 -158l154 158h188l-233 -303h-219z" />
    <glyph glyph-name="breve" unicode="&#x2d8;" horiz-adv-x="774" 
d="M385 1141q-122 0 -202.5 79t-80.5 197h191q0 -49 25.5 -78.5t66.5 -29.5q43 0 69.5 29.5t26.5 78.5h191q0 -119 -81.5 -197.5t-205.5 -78.5z" />
    <glyph glyph-name="dotaccent" unicode="&#x2d9;" horiz-adv-x="528" 
d="M262 1190q-69 0 -114.5 46t-45.5 114q0 66 45.5 111.5t114.5 45.5q70 0 117 -45.5t47 -111.5q0 -68 -47 -114t-117 -46z" />
    <glyph glyph-name="ring" unicode="&#x2da;" horiz-adv-x="681" 
d="M340 1108q-102 0 -170 64t-68 159q0 97 67.5 161t170.5 64q104 0 172 -64t68 -161q0 -96 -68 -159.5t-172 -63.5zM244 1331q0 -41 27 -66.5t69 -25.5q43 0 70.5 25.5t27.5 66.5t-27.5 67.5t-70.5 26.5q-41 0 -68.5 -26.5t-27.5 -67.5z" />
    <glyph glyph-name="ogonek" unicode="&#x2db;" horiz-adv-x="565" 
d="M348 -389q-110 0 -178 57.5t-68 149.5q0 49 27 105t68 95l182 -18q-70 -74 -70 -131q0 -35 21 -53.5t57 -18.5q35 0 51 4l25 -178q-54 -12 -115 -12z" />
    <glyph glyph-name="tilde" unicode="&#x2dc;" horiz-adv-x="1007" 
d="M102 1194q3 117 75 189.5t183 72.5q92 0 172 -55q5 -3 21 -13t20.5 -13t16.5 -9t19 -8t17 -4t21 -2q69 0 78 104l180 -26q-4 -118 -76 -191.5t-182 -73.5q-89 0 -172 56q-4 3 -16 11t-16 10.5t-13.5 8.5t-14 7.5t-12.5 5t-14 5t-13.5 2.5t-15.5 1q-66 0 -81 -105z" />
    <glyph glyph-name="hungarumlaut" unicode="&#x2dd;" horiz-adv-x="903" 
d="M102 1147l129 303h222l-146 -303h-205zM438 1147l129 303h234l-158 -303h-205z" />
    <glyph glyph-name="gravecomb" unicode="&#x300;" horiz-adv-x="0" 
d="M508 1147h-182l-246 303h299z" />
    <glyph glyph-name="acutecomb" unicode="&#x301;" horiz-adv-x="0" 
d="M102 1147l129 303h299l-245 -303h-183z" />
    <glyph glyph-name="uni0302" unicode="&#x302;" horiz-adv-x="0" 
d="M336 1450h219l233 -303h-188l-154 158l-155 -158h-189z" />
    <glyph glyph-name="tildecomb" unicode="&#x303;" horiz-adv-x="0" 
d="M102 1194q3 117 75 189.5t183 72.5q92 0 172 -55q5 -3 21 -13t20.5 -13t16.5 -9t19 -8t17 -4t21 -2q69 0 78 104l180 -26q-4 -118 -76 -191.5t-182 -73.5q-89 0 -172 56q-4 3 -16 11t-16 10.5t-13.5 8.5t-14 7.5t-12.5 5t-14 5t-13.5 2.5t-15.5 1q-66 0 -81 -105z" />
    <glyph glyph-name="uni0304" unicode="&#x304;" horiz-adv-x="0" 
d="M102 1196v199h570v-199h-570z" />
    <glyph glyph-name="uni0306" unicode="&#x306;" horiz-adv-x="0" 
d="M385 1141q-122 0 -202.5 79t-80.5 197h191q0 -49 25.5 -78.5t66.5 -29.5q43 0 69.5 29.5t26.5 78.5h191q0 -119 -81.5 -197.5t-205.5 -78.5z" />
    <glyph glyph-name="uni0307" unicode="&#x307;" horiz-adv-x="0" 
d="M262 1190q-69 0 -114.5 46t-45.5 114q0 66 45.5 111.5t114.5 45.5q70 0 117 -45.5t47 -111.5q0 -68 -47 -114t-117 -46z" />
    <glyph glyph-name="uni0308" unicode="&#x308;" horiz-adv-x="0" 
d="M244 1176q-60 0 -101 41.5t-41 101.5q0 59 41 100t101 41q63 0 105 -41t42 -100q0 -60 -42 -101.5t-105 -41.5zM498 1319q0 59 41 100t102 41t103 -41t42 -100q0 -60 -42 -101.5t-103 -41.5t-102 41.5t-41 101.5z" />
    <glyph glyph-name="uni030A" unicode="&#x30a;" horiz-adv-x="0" 
d="M340 1108q-102 0 -170 64t-68 159q0 97 67.5 161t170.5 64q104 0 172 -64t68 -161q0 -96 -68 -159.5t-172 -63.5zM244 1331q0 -41 27 -66.5t69 -25.5q43 0 70.5 25.5t27.5 66.5t-27.5 67.5t-70.5 26.5q-41 0 -68.5 -26.5t-27.5 -67.5z" />
    <glyph glyph-name="uni030B" unicode="&#x30b;" horiz-adv-x="0" 
d="M102 1147l129 303h222l-146 -303h-205zM438 1147l129 303h234l-158 -303h-205z" />
    <glyph glyph-name="uni030C" unicode="&#x30c;" horiz-adv-x="0" 
d="M336 1147l-234 303h189l155 -158l154 158h188l-233 -303h-219z" />
    <glyph glyph-name="uni0312" unicode="&#x312;" horiz-adv-x="0" 
d="M428 1450l-53 -303h-273l127 303h199z" />
    <glyph glyph-name="uni0326" unicode="&#x326;" horiz-adv-x="0" 
d="M102 -389l80 303h281l-178 -303h-183z" />
    <glyph glyph-name="uni0327" unicode="&#x327;" horiz-adv-x="0" 
d="M535 0l-132 -303h-301l299 369z" />
    <glyph glyph-name="uni0328" unicode="&#x328;" horiz-adv-x="0" 
d="M348 -389q-110 0 -178 57.5t-68 149.5q0 49 27 105t68 95l182 -18q-70 -74 -70 -131q0 -35 21 -53.5t57 -18.5q35 0 51 4l25 -178q-54 -12 -115 -12z" />
    <glyph glyph-name="uni0335" unicode="&#x335;" horiz-adv-x="0" 
d="M102 1153v176h658v-176h-658z" />
    <glyph glyph-name="uni0336" unicode="&#x336;" horiz-adv-x="0" 
d="M102 1065v209h1442v-209h-1442z" />
    <glyph glyph-name="uni0394" unicode="&#x394;" horiz-adv-x="1390" 
d="M825 1434l551 -1434h-1362l551 1434h260zM385 236h623l-312 833z" />
    <glyph glyph-name="uni03A9" unicode="&#x3a9;" horiz-adv-x="1505" 
d="M608 0h-520v242h274q-136 90 -213 228.5t-77 307.5q0 143 52 268t142 213.5t216.5 139.5t271.5 51t271 -51t216 -139.5t141.5 -213.5t51.5 -268q0 -169 -77 -307.5t-212 -228.5h272v-242h-518v317q115 73 184.5 195.5t69.5 253.5q0 200 -110.5 324t-288.5 124
q-180 0 -291 -124t-111 -324q0 -131 69.5 -253.5t186.5 -195.5v-317z" />
    <glyph glyph-name="uni03BC" unicode="&#x3bc;" horiz-adv-x="1191" 
d="M115 -389v1421h258v-614q0 -92 53 -148.5t143 -56.5q120 0 185 96.5t65 270.5v452h258v-1032h-258v156q-33 -77 -107.5 -124.5t-168.5 -47.5q-92 0 -170 63v-436h-258z" />
    <glyph glyph-name="pi" unicode="&#x3c0;" horiz-adv-x="1300" 
d="M76 819v213h1147v-213h-179v-422q0 -90 39 -139t113 -49q21 0 41 2l-4 -223q-48 -4 -66 -4q-172 0 -276.5 103.5t-104.5 274.5v457h-266v-819h-252v819h-192z" />
    <glyph glyph-name="uni0E3F" unicode="&#xe3f;" horiz-adv-x="1290" 
d="M492 -205v205h-357v1434h357v204h229v-204q193 -6 310.5 -103t117.5 -266q0 -95 -51 -170.5t-123 -112.5q109 -41 176.5 -131t67.5 -225q0 -199 -136 -312.5t-362 -113.5v-205h-229zM414 242h276q264 0 264 196q0 201 -264 201h-276v-397zM414 874h264q104 0 157.5 43.5
t53.5 124.5q0 168 -215 168h-260v-336z" />
    <glyph glyph-name="Wgrave" unicode="&#x1e80;" horiz-adv-x="2066" 
d="M449 0l-418 1434h286l277 -1102l280 1102h316l283 -1102l276 1102h287l-414 -1434h-295l-293 1051l-295 -1051h-290zM702 1851h299l129 -303h-182z" />
    <glyph glyph-name="wgrave" unicode="&#x1e81;" 
d="M367 0l-322 1032h260l178 -672l207 672h236l207 -672l176 672h260l-320 -1032h-231l-209 674l-213 -674h-229zM475 1450h299l129 -303h-182z" />
    <glyph glyph-name="Wacute" unicode="&#x1e82;" horiz-adv-x="2066" 
d="M449 0l-418 1434h286l277 -1102l280 1102h316l283 -1102l276 1102h287l-414 -1434h-295l-293 1051l-295 -1051h-290zM911 1548l129 303h299l-245 -303h-183z" />
    <glyph glyph-name="wacute" unicode="&#x1e83;" 
d="M367 0l-322 1032h260l178 -672l207 672h236l207 -672l176 672h260l-320 -1032h-231l-209 674l-213 -674h-229zM686 1147l129 303h299l-246 -303h-182z" />
    <glyph glyph-name="Wdieresis" unicode="&#x1e84;" horiz-adv-x="2066" 
d="M449 0l-418 1434h286l277 -1102l280 1102h316l283 -1102l276 1102h287l-414 -1434h-295l-293 1051l-295 -1051h-290zM692 1720q0 59 41 100.5t101 41.5q62 0 104.5 -41.5t42.5 -100.5q0 -60 -42 -101.5t-105 -41.5q-60 0 -101 41.5t-41 101.5zM1087 1720q0 59 41.5 100.5
t102.5 41.5t103 -41.5t42 -100.5q0 -60 -42 -101.5t-103 -41.5t-102.5 41.5t-41.5 101.5z" />
    <glyph glyph-name="wdieresis" unicode="&#x1e85;" 
d="M367 0l-322 1032h260l178 -672l207 672h236l207 -672l176 672h260l-320 -1032h-231l-209 674l-213 -674h-229zM467 1319q0 59 40.5 100t100.5 41q63 0 105.5 -41t42.5 -100q0 -60 -42.5 -101.5t-105.5 -41.5q-60 0 -100.5 41.5t-40.5 101.5zM862 1319q0 59 41.5 100
t102.5 41t103 -41t42 -100q0 -60 -42 -101.5t-103 -41.5t-102.5 41.5t-41.5 101.5z" />
    <glyph glyph-name="uni1E9E" unicode="&#x1e9e;" horiz-adv-x="1304" 
d="M666 1450q201 0 337.5 -110.5t153.5 -280.5l-252 -250q143 -31 235.5 -133.5t92.5 -239.5q0 -190 -127 -313t-324 -123h-239v242h221q94 0 152.5 55t58.5 143t-60 140.5t-161 52.5h-148l-22 147l299 303q-20 58 -80 93.5t-137 35.5q-110 0 -181 -86t-71 -219v-907h-279
v907q0 243 149.5 393t381.5 150z" />
    <glyph glyph-name="Ygrave" unicode="&#x1ef2;" horiz-adv-x="1271" 
d="M496 0v594l-492 840h299l332 -578l334 578h299l-494 -840v-594h-278zM301 1851h299l129 -303h-182z" />
    <glyph glyph-name="ygrave" unicode="&#x1ef3;" horiz-adv-x="1081" 
d="M801 1032h264l-545 -1405h-262l160 414l-402 991h281l248 -663zM207 1450h299l129 -303h-182z" />
    <glyph glyph-name="endash" unicode="&#x2013;" horiz-adv-x="1024" 
d="M45 481v221h934v-221h-934z" />
    <glyph glyph-name="emdash" unicode="&#x2014;" horiz-adv-x="2048" 
d="M45 481v221h1958v-221h-1958z" />
    <glyph glyph-name="quoteleft" unicode="&#x2018;" horiz-adv-x="538" 
d="M494 1450l-127 -502h-297l258 502h166z" />
    <glyph glyph-name="quoteright" unicode="&#x2019;" horiz-adv-x="538" 
d="M45 948l127 502h297l-258 -502h-166z" />
    <glyph glyph-name="quotesinglbase" unicode="&#x201a;" horiz-adv-x="538" 
d="M45 -231l127 501h297l-258 -501h-166z" />
    <glyph glyph-name="quotedblleft" unicode="&#x201c;" horiz-adv-x="923" 
d="M494 1450l-127 -502h-297l258 502h166zM455 948l258 502h166l-127 -502h-297z" />
    <glyph glyph-name="quotedblright" unicode="&#x201d;" horiz-adv-x="923" 
d="M432 948l127 502h297l-258 -502h-166zM45 948l127 502h297l-258 -502h-166z" />
    <glyph glyph-name="quotedblbase" unicode="&#x201e;" horiz-adv-x="923" 
d="M432 -231l127 501h297l-258 -501h-166zM45 -231l127 501h297l-258 -501h-166z" />
    <glyph glyph-name="dagger" unicode="&#x2020;" horiz-adv-x="772" 
d="M268 395v568h-250v188h250v283h238v-283h248v-188h-248v-568h-238z" />
    <glyph glyph-name="daggerdbl" unicode="&#x2021;" horiz-adv-x="772" 
d="M18 283v188h250v492h-250v188h250v283h238v-283h248v-188h-248v-492h248v-188h-248v-283h-238v283h-250z" />
    <glyph glyph-name="bullet" unicode="&#x2022;" horiz-adv-x="964" 
d="M485 147q-173 0 -293 119.5t-120 290.5q0 169 120 289.5t293 120.5q167 0 286.5 -120.5t119.5 -289.5q0 -170 -119 -290t-287 -120z" />
    <glyph glyph-name="ellipsis" unicode="&#x2026;" horiz-adv-x="1712" 
d="M285 -16q-68 0 -114 45t-46 112t46 112.5t114 45.5q69 0 114 -45t45 -113t-45 -112.5t-114 -44.5zM696 141q0 67 46 112.5t114 45.5q69 0 114.5 -45t45.5 -113t-45.5 -112.5t-114.5 -44.5q-68 0 -114 45t-46 112zM1266 141q0 67 45.5 112.5t113.5 45.5q69 0 114.5 -45
t45.5 -113t-45.5 -112.5t-114.5 -44.5q-68 0 -113.5 45t-45.5 112z" />
    <glyph glyph-name="perthousand" unicode="&#x2030;" horiz-adv-x="2082" 
d="M219 0l959 1434h208l-958 -1434h-209zM51 1090q0 161 92 260.5t244 99.5q150 0 242 -100t92 -260q0 -161 -92 -261t-242 -100q-151 0 -243.5 100t-92.5 261zM248 1090q0 -86 37 -135.5t102 -49.5q63 0 99 49.5t36 135.5t-36 135t-99 49q-65 0 -102 -49t-37 -135zM891 344
q0 161 92.5 261t243.5 100q139 0 235 -93q93 93 236 93q150 0 242 -100t92 -261q0 -160 -92 -260t-242 -100q-144 0 -236 92q-95 -92 -235 -92q-152 0 -244 99.5t-92 260.5zM1087 344q0 -86 37.5 -135t102.5 -49q63 0 99 49t36 135t-36 135t-99 49q-65 0 -102.5 -49
t-37.5 -135zM1561 315q6 -73 42 -114t95 -41q63 0 99 49t36 135t-36 135t-99 49q-59 0 -95 -41t-42 -114v-29v-29z" />
    <glyph glyph-name="guilsinglleft" unicode="&#x2039;" horiz-adv-x="718" 
d="M641 109l-575 442v151l575 443v-260l-340 -258l340 -258v-260z" />
    <glyph glyph-name="guilsinglright" unicode="&#x203a;" horiz-adv-x="718" 
d="M78 109v260l340 258l-340 258v260l575 -443v-151z" />
    <glyph glyph-name="fraction" unicode="&#x2044;" horiz-adv-x="552" 
d="M-307 0l958 1434h209l-958 -1434h-209z" />
    <glyph glyph-name="uni20A6" unicode="&#x20a6;" horiz-adv-x="1638" 
d="M45 825v181h195v428h284l264 -428h349v428h262v-428h194v-181h-194v-221h194v-180h-194v-424h-285l-262 424h-350v-424h-262v424h-195v180h195v221h-195zM502 604h239l-135 221h-104v-221zM899 825l135 -221h103v221h-238z" />
    <glyph glyph-name="Euro" unicode="&#x20ac;" horiz-adv-x="1628" 
d="M72 463v178h159q-2 25 -2 76q0 30 4 84h-161v178h196q70 225 253.5 348t414.5 123q257 0 427.5 -129.5t205.5 -347.5l-277 -58q-28 137 -124 216t-234 79q-125 0 -222.5 -58.5t-148.5 -172.5h555l-55 -178h-547q-4 -54 -4 -84q0 -26 4 -76h492l-54 -178h-395
q51 -117 149 -177.5t226 -60.5q138 0 230 72t122 199l281 -62q-53 -211 -219.5 -330.5t-411.5 -119.5q-154 0 -287.5 52.5t-236 162.5t-148.5 264h-192z" />
    <glyph glyph-name="uni20B9" unicode="&#x20b9;" horiz-adv-x="1165" 
d="M651 0l-270 514h-348v242h321q90 0 150 34.5t84 96.5h-555v178h555q-25 62 -85 95.5t-149 33.5h-321v240h1063v-179h-303q68 -80 86 -190h217v-178h-217q-19 -106 -77 -189t-145 -127l308 -571h-314z" />
    <glyph glyph-name="uni20BF" unicode="&#x20bf;" horiz-adv-x="1290" 
d="M686 -217v217h-147v-217h-228v217h-176v1434h176v204h228v-204h147v204h229v-241q110 -41 172 -126.5t62 -205.5q0 -95 -51 -170.5t-123 -112.5q109 -41 176.5 -131t67.5 -225q0 -151 -81 -254t-223 -145v-244h-229zM414 242h276q264 0 264 196q0 201 -264 201h-276v-397
zM414 874h264q104 0 157.5 43.5t53.5 124.5q0 168 -215 168h-260v-336z" />
    <glyph glyph-name="uni2116" unicode="&#x2116;" horiz-adv-x="2551" 
d="M135 0v1434h283l614 -996v996h260v-1434h-282l-613 993v-993h-262zM1401 924q0 231 152 381.5t386 150.5t386.5 -150.5t152.5 -381.5t-152.5 -382t-386.5 -151t-386 151t-152 382zM1475 16v222h933v-222h-933zM1661 924q0 -139 76.5 -224.5t201.5 -85.5q124 0 201.5 86
t77.5 224t-77 223.5t-202 85.5q-126 0 -202 -85.5t-76 -223.5z" />
    <glyph glyph-name="uni2117" unicode="&#x2117;" 
d="M860 649h-133v-291h-152l-2 762h287q113 0 184.5 -66t71.5 -171q0 -104 -71.5 -169t-184.5 -65zM72 717q0 156 55.5 292t152.5 233t233 152.5t292 55.5t292.5 -55.5t233.5 -152.5t153 -233t56 -292t-56 -292t-153 -233t-233.5 -152.5t-292.5 -55.5t-292 55.5t-233 152.5
t-152.5 233t-55.5 292zM217 717q0 -255 167.5 -424.5t420.5 -169.5q126 0 235.5 45.5t187.5 124t122.5 188.5t44.5 236t-44.5 236t-122.5 188.5t-187.5 124t-235.5 45.5q-253 0 -420.5 -169.5t-167.5 -424.5zM727 782h119q55 0 86 27.5t31 73.5q0 49 -30.5 75.5t-86.5 26.5
h-119v-203z" />
    <glyph glyph-name="trademark" unicode="&#x2122;" horiz-adv-x="1513" 
d="M219 717v571h-209v146h588v-146h-209v-571h-170zM668 717v717h186l205 -478l203 478h186v-717h-156v403l-174 -403h-121l-174 403v-403h-155z" />
    <glyph glyph-name="uni2126" unicode="&#x2126;" horiz-adv-x="1505" 
d="M608 0h-520v242h274q-136 90 -213 228.5t-77 307.5q0 143 52 268t142 213.5t216.5 139.5t271.5 51t271 -51t216 -139.5t141.5 -213.5t51.5 -268q0 -169 -77 -307.5t-212 -228.5h272v-242h-518v317q115 73 184.5 195.5t69.5 253.5q0 200 -110.5 324t-288.5 124
q-180 0 -291 -124t-111 -324q0 -131 69.5 -253.5t186.5 -195.5v-317z" />
    <glyph glyph-name="oneeighth" unicode="&#x215b;" horiz-adv-x="1656" 
d="M1305 -8q-125 0 -212 66t-87 178q0 64 37.5 116t99.5 72q-46 23 -73.5 66t-27.5 94q0 89 74.5 151t188.5 62q115 0 186.5 -61.5t71.5 -151.5q0 -52 -28 -95t-75 -65q63 -20 100 -71.5t37 -116.5q0 -112 -83 -178t-209 -66zM49 1159v168q88 21 205 107h141v-789h-174v594
q-97 -64 -172 -80zM203 0l958 1434h209l-958 -1434h-209zM1188 240q0 -44 32 -71.5t83 -27.5q52 0 83 27t31 72q0 43 -31 69.5t-83 26.5q-51 0 -83 -26.5t-32 -69.5zM1210 575q0 -37 26 -59t69 -22q41 0 66.5 22t25.5 59t-25.5 59.5t-66.5 22.5q-43 0 -69 -22.5t-26 -59.5z
" />
    <glyph glyph-name="threeeighths" unicode="&#x215c;" horiz-adv-x="1800" 
d="M348 637q-125 0 -208 64t-95 171l170 27q11 -46 48.5 -74t88.5 -28q54 0 86.5 29.5t32.5 78.5q0 51 -32 80t-85 29q-52 0 -92 -27l-72 125l191 162h-313l2 160h532v-160l-184 -144q108 2 174.5 -60.5t66.5 -168.5q0 -120 -85.5 -192t-225.5 -72zM305 0l959 1434h209
l-959 -1434h-209zM1149 236q0 64 37.5 116t99.5 72q-46 23 -73 66t-27 94q0 89 74 151t188 62q115 0 186.5 -61.5t71.5 -151.5q0 -52 -27.5 -95t-74.5 -65q63 -20 100 -71.5t37 -116.5q0 -112 -83.5 -178t-209.5 -66q-125 0 -212 66t-87 178zM1331 240q0 -44 32 -71.5
t83 -27.5q52 0 83.5 27.5t31.5 71.5q0 43 -31.5 69.5t-83.5 26.5q-51 0 -83 -26.5t-32 -69.5zM1354 575q0 -37 25.5 -59t68.5 -22q41 0 66.5 22t25.5 59t-25.5 59.5t-66.5 22.5q-43 0 -68.5 -22.5t-25.5 -59.5z" />
    <glyph glyph-name="fiveeighths" unicode="&#x215d;" horiz-adv-x="1800" 
d="M350 637q-119 0 -200.5 59.5t-98.5 159.5l168 31q12 -42 45 -66t78 -24q52 0 83.5 31.5t31.5 82.5q0 52 -32.5 82.5t-88.5 30.5q-80 0 -131 -68l-135 29l67 449h445v-160h-312l-26 -158q56 53 143 53q113 0 184.5 -71.5t71.5 -186.5q0 -124 -80.5 -199t-212.5 -75zM317 0
l959 1434h209l-959 -1434h-209zM1149 236q0 64 37.5 116t99.5 72q-46 23 -73 66t-27 94q0 89 74 151t188 62q115 0 186.5 -61.5t71.5 -151.5q0 -52 -27.5 -95t-74.5 -65q63 -20 100 -71.5t37 -116.5q0 -112 -83.5 -178t-209.5 -66q-125 0 -212 66t-87 178zM1331 240
q0 -44 32 -71.5t83 -27.5q52 0 83.5 27.5t31.5 71.5q0 43 -31.5 69.5t-83.5 26.5q-51 0 -83 -26.5t-32 -69.5zM1354 575q0 -37 25.5 -59t68.5 -22q41 0 66.5 22t25.5 59t-25.5 59.5t-66.5 22.5q-43 0 -68.5 -22.5t-25.5 -59.5z" />
    <glyph glyph-name="seveneighths" unicode="&#x215e;" horiz-adv-x="1636" 
d="M119 645q108 359 311 629h-393l-2 160h579v-160q-232 -326 -315 -629h-180zM145 0l959 1434h209l-959 -1434h-209zM985 236q0 64 37.5 116t99.5 72q-46 23 -73 66t-27 94q0 89 74 151t188 62q115 0 186.5 -61.5t71.5 -151.5q0 -52 -27.5 -95t-74.5 -65q63 -20 100 -71.5
t37 -116.5q0 -112 -83.5 -178t-209.5 -66q-125 0 -212 66t-87 178zM1167 240q0 -44 32 -71.5t83 -27.5q52 0 83.5 27.5t31.5 71.5q0 43 -31.5 69.5t-83.5 26.5q-51 0 -83 -26.5t-32 -69.5zM1190 575q0 -37 25.5 -59t68.5 -22q41 0 66.5 22t25.5 59t-25.5 59.5t-66.5 22.5
q-43 0 -68.5 -22.5t-25.5 -59.5z" />
    <glyph glyph-name="uni2160" unicode="&#x2160;" horiz-adv-x="993" 
d="M135 0v242h221v952h-221v240h723v-240h-223v-952h223v-242h-723z" />
    <glyph glyph-name="uni2161" unicode="&#x2161;" horiz-adv-x="1558" 
d="M135 0v242h221v952h-221v240h1288v-240h-223v-952h223v-242h-1288zM635 242h287v952h-287v-952z" />
    <glyph glyph-name="uni2162" unicode="&#x2162;" horiz-adv-x="2125" 
d="M135 0v242h221v952h-221v240h1854v-240h-222v-952h222v-242h-1854zM635 242h287v952h-287v-952zM1200 242h289v952h-289v-952z" />
    <glyph glyph-name="uni2163" unicode="&#x2163;" horiz-adv-x="2347" 
d="M135 0v242h221v952h-221v240h2077v-240h-203l-346 -952h549v-242h-2077zM635 242h584l-347 952h-237v-952zM1149 1194l291 -862l293 862h-584z" />
    <glyph glyph-name="uni2164" unicode="&#x2164;" horiz-adv-x="1847" 
d="M186 0v242h521l-347 952h-225v240h1577v-240h-215l-346 -952h510v-242h-1475zM637 1194l291 -862l293 862h-584z" />
    <glyph glyph-name="uni2165" unicode="&#x2165;" horiz-adv-x="2347" 
d="M2212 0h-2077v242h576l-346 952h-230v240h2077v-240h-221v-952h221v-242zM641 1194l291 -862l293 862h-584zM1155 242h557v952h-211z" />
    <glyph glyph-name="uni2166" unicode="&#x2166;" horiz-adv-x="2914" 
d="M2779 0h-2644v242h576l-346 952h-230v240h2644v-240h-223v-952h223v-242zM641 1194l291 -862l293 862h-584zM1155 242h555v952h-209zM1989 242h288v952h-288v-952z" />
    <glyph glyph-name="uni2167" unicode="&#x2167;" horiz-adv-x="3479" 
d="M3344 0h-3209v242h576l-346 952h-230v240h3209v-240h-221v-952h221v-242zM641 1194l291 -862l293 862h-584zM1155 242h555v952h-209zM1989 242h288v952h-288v-952zM2556 242h289v952h-289v-952z" />
    <glyph glyph-name="uni2168" unicode="&#x2168;" horiz-adv-x="2314" 
d="M135 0v242h221v952h-221v240h2044v-240h-205l-358 -477l356 -475h207v-242h-2044zM635 242h293l358 475l-360 477h-291v-952zM1255 1194l195 -258l195 258h-390zM1257 242h385l-192 256z" />
    <glyph glyph-name="uni2169" unicode="&#x2169;" horiz-adv-x="1728" 
d="M135 0v242h207l358 475l-360 477h-205v240h1458v-240h-204l-359 -477l356 -475h207v-242h-1458zM670 1194l194 -258l195 258h-389zM672 242h385l-193 256z" />
    <glyph glyph-name="uni216A" unicode="&#x216a;" horiz-adv-x="2238" 
d="M135 0v242h207l358 475l-360 477h-205v240h1968v-240h-221v-952h221v-242h-1968zM670 1194l194 -258l195 258h-389zM672 242h385l-193 256zM1030 717l356 -475h218v952h-215z" />
    <glyph glyph-name="uni216B" unicode="&#x216b;" horiz-adv-x="2824" 
d="M135 0v242h207l358 475l-360 477h-205v240h2554v-240h-219v-952h219v-242h-2554zM670 1194l194 -258l195 258h-389zM672 242h385l-193 256zM1030 717l356 -475h218v952h-215zM1882 242h309v952h-309v-952z" />
    <glyph glyph-name="uni216C" unicode="&#x216c;" horiz-adv-x="1327" 
d="M135 1194v240h723v-240h-223v-952h428l-2 219l239 2l3 -242h-3v-221h-1165v242h221v952h-221z" />
    <glyph glyph-name="uni216D" unicode="&#x216d;" horiz-adv-x="1495" 
d="M784 -16q-115 0 -219.5 29t-194.5 89.5t-156.5 146.5t-104 206t-37.5 262q0 176 58.5 318t158 231t226.5 136.5t269 47.5q242 0 396 -160v144h239l2 -461l-276 -58q-28 136 -125.5 215.5t-235.5 79.5q-189 0 -309.5 -129.5t-120.5 -363.5t120 -363t310 -129q139 0 232 72
t121 199l280 -62l2 -434h-241v135q-160 -151 -394 -151z" />
    <glyph glyph-name="uni216E" unicode="&#x216e;" horiz-adv-x="1632" 
d="M135 1194v240h690q120 0 228.5 -28t201.5 -86.5t161 -142t106.5 -201.5t38.5 -259t-38.5 -259t-106.5 -201.5t-161 -142t-201.5 -86.5t-228.5 -28h-690v242h221v952h-221zM631 242h170q76 0 144 15.5t130 51.5t106.5 89.5t70.5 135t26 183.5q0 126 -39.5 221
t-107.5 149.5t-151 80.5t-179 26h-170v-952z" />
    <glyph glyph-name="uni216F" unicode="&#x216f;" horiz-adv-x="2213" 
d="M135 1194v240h535l438 -1039l438 1039h533v-240h-219v-952h219v-242h-482v915l-385 -915h-208l-386 915v-915h-483v242h221v952h-221z" />
    <glyph glyph-name="arrowleft" unicode="&#x2190;" horiz-adv-x="1476" 
d="M664 -51l-594 594l596 596l137 -140l-348 -346h952v-221h-952l346 -346z" />
    <glyph glyph-name="arrowup" unicode="&#x2191;" horiz-adv-x="1327" 
d="M1257 731l-137 -137l-346 346v-952h-221v952l-346 -348l-139 137l596 596z" />
    <glyph glyph-name="arrowright" unicode="&#x2192;" horiz-adv-x="1476" 
d="M813 -51l-137 137l346 346h-952v221h952l-348 346l137 140l596 -596z" />
    <glyph glyph-name="arrowdown" unicode="&#x2193;" horiz-adv-x="1327" 
d="M70 584l137 137l346 -346v952h221v-952l346 348l140 -137l-596 -596z" />
    <glyph glyph-name="arrowboth" unicode="&#x2194;" horiz-adv-x="2160" 
d="M1497 -51l-137 137l346 346h-1251l344 -346l-137 -137l-592 594l594 596l137 -140l-346 -346h1251l-348 346l137 140l596 -596z" />
    <glyph glyph-name="arrowupdn" unicode="&#x2195;" horiz-adv-x="1327" 
d="M70 225l137 137l346 -346v1252l-346 -344l-137 137l594 592l596 -594l-140 -137l-346 346v-1252l346 349l140 -138l-596 -596z" />
    <glyph glyph-name="uni2196" unicode="&#x2196;" horiz-adv-x="1218" 
d="M127 170v840h842v-197l-492 2l674 -674l-158 -155l-671 671v-487h-195z" />
    <glyph glyph-name="uni2197" unicode="&#x2197;" horiz-adv-x="1214" 
d="M1087 170h-194v487l-674 -671l-156 155l674 674l-491 -2l-2 197h843v-840z" />
    <glyph glyph-name="uni2198" unicode="&#x2198;" horiz-adv-x="1218" 
d="M254 -4v192h489l-673 674l155 158l674 -674l-2 490l197 2v-842h-840z" />
    <glyph glyph-name="uni2199" unicode="&#x2199;" horiz-adv-x="1218" 
d="M965 -4h-840v842l197 -2l-3 -490l674 674l156 -158l-676 -674h492v-192z" />
    <glyph glyph-name="partialdiff" unicode="&#x2202;" horiz-adv-x="1234" 
d="M426 1448q10 0 30.5 1t30.5 1q109 0 208.5 -31t185.5 -96t149 -158t99 -225t36 -289q0 -297 -153 -482t-398 -185q-238 0 -391 138t-153 353t141.5 353.5t361.5 138.5q106 0 196.5 -47.5t135.5 -128.5q-12 187 -128 303t-296 116q-35 0 -80 -10zM344 489
q2 -116 75.5 -190t188.5 -74q116 0 190 74.5t74 189.5q0 114 -74.5 188.5t-189.5 74.5q-116 0 -190.5 -74.5t-73.5 -188.5z" />
    <glyph glyph-name="uni2206" unicode="&#x2206;" horiz-adv-x="1390" 
d="M825 1434l551 -1434h-1362l551 1434h260zM385 236h623l-312 833z" />
    <glyph glyph-name="product" unicode="&#x220f;" horiz-adv-x="1388" 
d="M137 0v1434h1114v-1434h-286v1194h-543v-1194h-285z" />
    <glyph glyph-name="summation" unicode="&#x2211;" horiz-adv-x="1130" 
d="M80 0v227l444 490l-444 489v228h960v-240h-618l352 -373v-209l-354 -370h620v-242h-960z" />
    <glyph glyph-name="minus" unicode="&#x2212;" horiz-adv-x="1124" 
d="M66 555v221h993v-221h-993z" />
    <glyph glyph-name="radical" unicode="&#x221a;" horiz-adv-x="1198" 
d="M471 0l-195 573h-227v240h393l154 -467l334 1088h258l-465 -1434h-252z" />
    <glyph glyph-name="infinity" unicode="&#x221e;" horiz-adv-x="1933" 
d="M545 528q76 0 150.5 53.5t133.5 153.5q-59 100 -133.5 153.5t-150.5 53.5q-106 0 -163.5 -54.5t-57.5 -152.5t57.5 -152.5t163.5 -54.5zM70 735q0 200 133 326.5t342 126.5q239 0 422 -223q180 223 422 223q209 0 341 -126.5t132 -326.5t-132 -326t-341 -126
q-242 0 -422 223q-186 -223 -422 -223q-209 0 -342 126.5t-133 325.5zM1104 735q61 -100 135 -153.5t150 -53.5q105 0 162 54.5t57 152.5t-57 152.5t-162 54.5q-76 0 -150 -53.5t-135 -153.5z" />
    <glyph glyph-name="integral" unicode="&#x222b;" horiz-adv-x="651" 
d="M59 -389q-41 0 -65 4l-4 223q10 -2 39 -2q75 0 114 49t39 140v1046q0 172 103.5 275.5t275.5 103.5l66 -4l6 -223q-18 2 -41 2q-75 0 -113.5 -49t-38.5 -140v-1046q0 -172 -104.5 -275.5t-276.5 -103.5z" />
    <glyph glyph-name="approxequal" unicode="&#x2248;" horiz-adv-x="1243" 
d="M809 731q-116 0 -229 74q-6 4 -24 16.5t-24.5 16.5t-21 13t-23 12t-21 8t-24 6.5t-24.5 1.5q-50 0 -82.5 -37t-44.5 -109l-213 33q9 154 102 247t238 93q117 0 227 -74q9 -6 29 -19.5t28 -18.5t24 -14t27 -12.5t26 -6.5t30 -3q48 0 81.5 37.5t43.5 108.5l215 -33
q-10 -154 -103.5 -247t-236.5 -93zM78 299q9 154 102 247t238 93q117 0 227 -74q7 -5 28.5 -19t28.5 -18.5t24 -14t27 -12.5t25.5 -6t30.5 -3q48 0 81.5 37t43.5 108l215 -33q-10 -154 -103.5 -247t-236.5 -93q-116 0 -229 74q-6 4 -24 16.5t-24.5 16.5t-21 13t-23 12t-21 8
t-24 6.5t-24.5 1.5q-50 0 -82.5 -37t-44.5 -109z" />
    <glyph glyph-name="notequal" unicode="&#x2260;" horiz-adv-x="1124" 
d="M332 29l-178 92l118 213h-206v221h331l125 221h-456v221h581l146 260l178 -92l-94 -168h182v-221h-307l-125 -221h432v-221h-555z" />
    <glyph glyph-name="lessequal" unicode="&#x2264;" horiz-adv-x="1173" 
d="M1083 313l-993 418v223l993 418v-264l-669 -266l669 -267v-262zM90 0v221h993v-221h-993z" />
    <glyph glyph-name="greaterequal" unicode="&#x2265;" horiz-adv-x="1173" 
d="M90 313v262l670 267l-670 266v264l993 -418v-223zM90 0v221h993v-221h-993z" />
    <glyph glyph-name="uni2460" unicode="&#x2460;" 
d="M805 -16q-156 0 -292 55.5t-233 152.5t-152.5 233t-55.5 292t55.5 292t152.5 233t233 152.5t292 55.5t292.5 -55.5t233.5 -152.5t153 -233t56 -292t-56 -292t-153 -233t-233.5 -152.5t-292.5 -55.5zM217 717q0 -255 167.5 -424.5t420.5 -169.5q126 0 235.5 45.5
t187.5 124t122.5 188.5t44.5 236t-44.5 236t-122.5 188.5t-187.5 124t-235.5 45.5q-253 0 -420.5 -169.5t-167.5 -424.5zM592 856v168q90 21 205 106h141v-788h-174v594q-97 -64 -172 -80z" />
    <glyph glyph-name="uni2461" unicode="&#x2461;" 
d="M805 -16q-156 0 -292 55.5t-233 152.5t-152.5 233t-55.5 292t55.5 292t152.5 233t233 152.5t292 55.5t292.5 -55.5t233.5 -152.5t153 -233t56 -292t-56 -292t-153 -233t-233.5 -152.5t-292.5 -55.5zM217 717q0 -255 167.5 -424.5t420.5 -169.5q126 0 235.5 45.5
t187.5 124t122.5 188.5t44.5 236t-44.5 236t-122.5 188.5t-187.5 124t-235.5 45.5q-253 0 -420.5 -169.5t-167.5 -424.5zM524 836q-12 126 73 214.5t214 88.5q130 0 210.5 -71.5t80.5 -184.5q0 -152 -199 -295l-112 -86h311v-160h-572l-2 145l244 203q71 58 106 104.5
t35 88.5q0 43 -28 69.5t-74 26.5q-55 0 -85 -42.5t-24 -113.5z" />
    <glyph glyph-name="uni2462" unicode="&#x2462;" 
d="M805 -16q-156 0 -292 55.5t-233 152.5t-152.5 233t-55.5 292t55.5 292t152.5 233t233 152.5t292 55.5t292.5 -55.5t233.5 -152.5t153 -233t56 -292t-56 -292t-153 -233t-233.5 -152.5t-292.5 -55.5zM217 717q0 -255 167.5 -424.5t420.5 -169.5q126 0 235.5 45.5
t187.5 124t122.5 188.5t44.5 236t-44.5 236t-122.5 188.5t-187.5 124t-235.5 45.5q-253 0 -420.5 -169.5t-167.5 -424.5zM502 569l170 27q11 -46 48.5 -74t88.5 -28q54 0 86.5 29.5t32.5 78.5q0 51 -32 80t-85 29q-51 0 -92 -27l-72 125l191 162h-314l2 159h533v-159
l-185 -144q108 2 175 -60.5t67 -168.5q0 -120 -85.5 -192t-225.5 -72q-125 0 -208 64t-95 171z" />
    <glyph glyph-name="uni2463" unicode="&#x2463;" 
d="M805 -16q-156 0 -292 55.5t-233 152.5t-152.5 233t-55.5 292t55.5 292t152.5 233t233 152.5t292 55.5t292.5 -55.5t233.5 -152.5t153 -233t56 -292t-56 -292t-153 -233t-233.5 -152.5t-292.5 -55.5zM217 717q0 -255 167.5 -424.5t420.5 -169.5q126 0 235.5 45.5
t187.5 124t122.5 188.5t44.5 236t-44.5 236t-122.5 188.5t-187.5 124t-235.5 45.5q-253 0 -420.5 -169.5t-167.5 -424.5zM426 485v162l379 483h199v-483h92v-162h-92v-143h-189v143h-389zM616 647h199v254z" />
    <glyph glyph-name="uni2464" unicode="&#x2464;" 
d="M805 -16q-156 0 -292 55.5t-233 152.5t-152.5 233t-55.5 292t55.5 292t152.5 233t233 152.5t292 55.5t292.5 -55.5t233.5 -152.5t153 -233t56 -292t-56 -292t-153 -233t-233.5 -152.5t-292.5 -55.5zM217 717q0 -255 167.5 -424.5t420.5 -169.5q126 0 235.5 45.5
t187.5 124t122.5 188.5t44.5 236t-44.5 236t-122.5 188.5t-187.5 124t-235.5 45.5q-253 0 -420.5 -169.5t-167.5 -424.5zM512 553l168 31q12 -42 45 -66t78 -24q52 0 83.5 31.5t31.5 82.5q0 52 -32.5 82.5t-88.5 30.5q-80 0 -131 -68l-136 29l68 448h444v-159h-311l-26 -158
q56 53 143 53q113 0 184.5 -71.5t71.5 -186.5q0 -124 -80.5 -199t-212.5 -75q-119 0 -200.5 59.5t-98.5 159.5z" />
    <glyph glyph-name="uni2465" unicode="&#x2465;" 
d="M805 -16q-156 0 -292 55.5t-233 152.5t-152.5 233t-55.5 292t55.5 292t152.5 233t233 152.5t292 55.5t292.5 -55.5t233.5 -152.5t153 -233t56 -292t-56 -292t-153 -233t-233.5 -152.5t-292.5 -55.5zM217 717q0 -255 167.5 -424.5t420.5 -169.5q126 0 235.5 45.5
t187.5 124t122.5 188.5t44.5 236t-44.5 236t-122.5 188.5t-187.5 124t-235.5 45.5q-253 0 -420.5 -169.5t-167.5 -424.5zM479 686q0 115 32 204t86.5 142t121 80t141.5 27q143 0 238 -86l-82 -119q-54 45 -150 45q-87 0 -142.5 -49.5t-66.5 -130.5q54 75 166 75
q120 0 197.5 -76t77.5 -194q0 -116 -86.5 -193t-214.5 -77q-138 0 -228 101.5t-90 250.5zM676 616q0 -53 33.5 -87.5t87.5 -34.5q52 0 85.5 34t35.5 88q1 52 -33.5 84.5t-87.5 32.5q-54 0 -87.5 -32.5t-33.5 -84.5z" />
    <glyph glyph-name="uni2466" unicode="&#x2466;" 
d="M805 -16q-156 0 -292 55.5t-233 152.5t-152.5 233t-55.5 292t55.5 292t152.5 233t233 152.5t292 55.5t292.5 -55.5t233.5 -152.5t153 -233t56 -292t-56 -292t-153 -233t-233.5 -152.5t-292.5 -55.5zM217 717q0 -255 167.5 -424.5t420.5 -169.5q126 0 235.5 45.5
t187.5 124t122.5 188.5t44.5 236t-44.5 236t-122.5 188.5t-187.5 124t-235.5 45.5q-253 0 -420.5 -169.5t-167.5 -424.5zM516 1130h580v-159q-234 -329 -316 -629h-180q108 359 311 629h-393z" />
    <glyph glyph-name="uni2467" unicode="&#x2467;" 
d="M805 -16q-156 0 -292 55.5t-233 152.5t-152.5 233t-55.5 292t55.5 292t152.5 233t233 152.5t292 55.5t292.5 -55.5t233.5 -152.5t153 -233t56 -292t-56 -292t-153 -233t-233.5 -152.5t-292.5 -55.5zM217 717q0 -255 167.5 -424.5t420.5 -169.5q126 0 235.5 45.5
t187.5 124t122.5 188.5t44.5 236t-44.5 236t-122.5 188.5t-187.5 124t-235.5 45.5q-253 0 -420.5 -169.5t-167.5 -424.5zM512 578q0 64 37.5 116t99.5 72q-46 23 -73 66t-27 94q0 89 73 151t187 62q115 0 187.5 -61.5t72.5 -151.5q0 -52 -27.5 -95t-74.5 -65
q63 -20 100 -71.5t37 -116.5q0 -112 -84.5 -178t-210.5 -66q-125 0 -211 66t-86 178zM694 582q0 -44 32 -71.5t83 -27.5q52 0 83.5 27.5t31.5 71.5q0 43 -31.5 69.5t-83.5 26.5q-51 0 -83 -26.5t-32 -69.5zM717 918q0 -37 24.5 -58.5t67.5 -21.5t68.5 21.5t25.5 58.5
q0 36 -26 58.5t-68 22.5q-43 0 -67.5 -21.5t-24.5 -59.5z" />
    <glyph glyph-name="uni2468" unicode="&#x2468;" 
d="M805 -16q-156 0 -292 55.5t-233 152.5t-152.5 233t-55.5 292t55.5 292t152.5 233t233 152.5t292 55.5t292.5 -55.5t233.5 -152.5t153 -233t56 -292t-56 -292t-153 -233t-233.5 -152.5t-292.5 -55.5zM217 717q0 -255 167.5 -424.5t420.5 -169.5q126 0 235.5 45.5
t187.5 124t122.5 188.5t44.5 236t-44.5 236t-122.5 188.5t-187.5 124t-235.5 45.5q-253 0 -420.5 -169.5t-167.5 -424.5zM512 420l82 119q54 -45 149 -45q87 0 142.5 49.5t66.5 130.5q-54 -76 -166 -76q-120 0 -197 76t-77 194q0 116 86.5 193.5t214.5 77.5
q138 0 227.5 -101.5t89.5 -251.5q0 -115 -32 -204t-86 -141.5t-120.5 -79.5t-141.5 -27q-143 0 -238 86zM692 856q-1 -52 33.5 -84.5t87.5 -32.5q54 0 87.5 32.5t33.5 84.5q0 53 -34 88t-87 35q-52 0 -85.5 -34.5t-35.5 -88.5z" />
    <glyph glyph-name="lozenge" unicode="&#x25ca;" horiz-adv-x="1206" 
d="M487 0l-395 717l395 717h234l395 -717l-395 -717h-234zM336 717l266 -492l266 492l-266 491z" />
    <glyph glyph-name="circle" unicode="&#x25cb;" 
d="M805 -16q-156 0 -292 55.5t-233 152.5t-152.5 233t-55.5 292t55.5 292t152.5 233t233 152.5t292 55.5t292.5 -55.5t233.5 -152.5t153 -233t56 -292t-56 -292t-153 -233t-233.5 -152.5t-292.5 -55.5zM217 717q0 -255 167.5 -424.5t420.5 -169.5q126 0 235.5 45.5
t187.5 124t122.5 188.5t44.5 236t-44.5 236t-122.5 188.5t-187.5 124t-235.5 45.5q-253 0 -420.5 -169.5t-167.5 -424.5z" />
    <glyph glyph-name="uni25CF" unicode="&#x25cf;" 
d="M809 -16q-157 0 -294 55.5t-234 152.5t-153 233t-56 292t56 292t153 233t234 152.5t294 55.5q155 0 291 -55.5t232.5 -152.5t152 -233t55.5 -292t-55.5 -292t-152 -233t-232.5 -152.5t-291 -55.5z" />
    <glyph glyph-name="uniF8FF" unicode="&#xf8ff;" horiz-adv-x="1601" 
d="M1253 545q114 0 197.5 -84t83.5 -199q0 -114 -83 -196t-198 -82q-117 0 -199.5 82t-82.5 196v174h-342v-174q0 -114 -83 -196t-200 -82q-116 0 -197 81t-81 197q0 117 82 200t196 83h174v342h-174q-114 0 -196 82.5t-82 199.5q0 115 82 198t196 83q115 0 199 -83.5
t84 -197.5v-174h342v174q0 114 83.5 197.5t198.5 83.5t198 -83t83 -198t-83.5 -198.5t-197.5 -83.5h-174v-342h174zM176 262q0 -70 50 -120t120 -50q72 0 123 50t51 120v174h-174q-70 0 -120 -51t-50 -123zM176 1169q0 -72 50 -123t120 -51h174v174q0 71 -51 121.5
t-123 50.5q-70 0 -120 -50.5t-50 -121.5zM629 545h342v342h-342v-342zM1079 262q0 -70 51 -120t123 -50q71 0 121.5 50t50.5 120q0 72 -50.5 123t-121.5 51h-174v-174zM1079 995h174q71 0 121.5 51t50.5 123q0 71 -50.5 121.5t-121.5 50.5q-72 0 -123 -50.5t-51 -121.5v-174
z" />
    <glyph glyph-name="fi" unicode="&#xfb01;" horiz-adv-x="1251" 
d="M211 0v815h-162v217h162v80q0 177 100 275t262 98q79 0 156 -23l-16 -213q-52 21 -103 21q-66 0 -106.5 -43.5t-40.5 -118.5v-76h661v-1032h-258v815h-403v-815h-252zM836 1350q0 66 45 111.5t114 45.5q70 0 117 -45.5t47 -111.5q0 -68 -47 -114t-117 -46q-69 0 -114 46
t-45 114z" />
    <glyph glyph-name="fl" unicode="&#xfb02;" horiz-adv-x="1284" 
d="M211 0v815h-162v217h162v80q0 177 100 275t262 98q79 0 156 -23l-16 -213q-52 21 -103 21q-66 0 -106.5 -43.5t-40.5 -118.5v-76h438v418h258v-1450h-258v815h-438v-815h-252z" />
    <glyph glyph-name="G.ss03" horiz-adv-x="1552" 
d="M799 -16q-210 0 -376 93t-258.5 260.5t-92.5 379.5t92.5 379.5t257.5 260.5t375 93q256 0 439.5 -132.5t221.5 -344.5l-278 -58q-28 135 -132.5 215t-250.5 80q-198 0 -321.5 -133.5t-123.5 -359.5q0 -218 124 -355t321 -137q164 0 270 87t115 229h-469v225h766v-111
q0 -302 -187 -486.5t-493 -184.5z" />
    <glyph glyph-name="Gbreve.ss03" horiz-adv-x="1552" 
d="M799 -16q-210 0 -376 93t-258.5 260.5t-92.5 379.5t92.5 379.5t257.5 260.5t375 93q256 0 439.5 -132.5t221.5 -344.5l-278 -58q-28 135 -132.5 215t-250.5 80q-198 0 -321.5 -133.5t-123.5 -359.5q0 -218 124 -355t321 -137q164 0 270 87t115 229h-469v225h766v-111
q0 -302 -187 -486.5t-493 -184.5zM512 1819h190q0 -49 26 -79t67 -30q43 0 69.5 30t26.5 79h190q0 -119 -81 -198t-205 -79q-121 0 -202 79t-81 198z" />
    <glyph glyph-name="Gcircumflex.ss03" horiz-adv-x="1552" 
d="M799 -16q-210 0 -376 93t-258.5 260.5t-92.5 379.5t92.5 379.5t257.5 260.5t375 93q256 0 439.5 -132.5t221.5 -344.5l-278 -58q-28 135 -132.5 215t-250.5 80q-198 0 -321.5 -133.5t-123.5 -359.5q0 -218 124 -355t321 -137q164 0 270 87t115 229h-469v225h766v-111
q0 -302 -187 -486.5t-493 -184.5zM451 1548l233 303h219l234 -303h-189l-153 158l-156 -158h-188z" />
    <glyph glyph-name="uni0122.ss03" horiz-adv-x="1552" 
d="M799 -16q-210 0 -376 93t-258.5 260.5t-92.5 379.5t92.5 379.5t257.5 260.5t375 93q256 0 439.5 -132.5t221.5 -344.5l-278 -58q-28 135 -132.5 215t-250.5 80q-198 0 -321.5 -133.5t-123.5 -359.5q0 -218 124 -355t321 -137q164 0 270 87t115 229h-469v225h766v-111
q0 -302 -187 -486.5t-493 -184.5zM567 -389l80 303h281l-178 -303h-183z" />
    <glyph glyph-name="Gdotaccent.ss03" horiz-adv-x="1552" 
d="M799 -16q-210 0 -376 93t-258.5 260.5t-92.5 379.5t92.5 379.5t257.5 260.5t375 93q256 0 439.5 -132.5t221.5 -344.5l-278 -58q-28 135 -132.5 215t-250.5 80q-198 0 -321.5 -133.5t-123.5 -359.5q0 -218 124 -355t321 -137q164 0 270 87t115 229h-469v225h766v-111
q0 -302 -187 -486.5t-493 -184.5zM637 1751q0 67 45.5 112.5t114.5 45.5q70 0 117 -46t47 -112q0 -68 -47 -114t-117 -46q-69 0 -114.5 46t-45.5 114z" />
    <glyph glyph-name="i.loclTRK" horiz-adv-x="507" 
d="M125 0v1032h258v-1032h-258zM94 1350q0 66 45.5 111.5t114.5 45.5q70 0 117 -45.5t47 -111.5q0 -68 -47 -114t-117 -46q-69 0 -114.5 46t-45.5 114z" />
    <glyph glyph-name="r.calt" horiz-adv-x="796" 
d="M717 793q-29 8 -70 8q-117 0 -190.5 -102.5t-73.5 -319.5v-379h-258v1032h258v-188q35 90 116.5 147.5t174.5 57.5q16 0 31 -1.5t23 -3.5l7 -2z" />
    <glyph glyph-name="racute.calt" horiz-adv-x="796" 
d="M717 793q-29 8 -70 8q-117 0 -190.5 -102.5t-73.5 -319.5v-379h-258v1032h258v-188q35 90 116.5 147.5t174.5 57.5q16 0 31 -1.5t23 -3.5l7 -2zM305 1147l129 303h299l-246 -303h-182z" />
    <glyph glyph-name="rcaron.calt" horiz-adv-x="796" 
d="M717 793q-29 8 -70 8q-117 0 -190.5 -102.5t-73.5 -319.5v-379h-258v1032h258v-188q35 90 116.5 147.5t174.5 57.5q16 0 31 -1.5t23 -3.5l7 -2zM84 1450h188l156 -158l154 158h188l-233 -303h-220z" />
    <glyph glyph-name="uni0157.calt" horiz-adv-x="796" 
d="M717 793q-29 8 -70 8q-117 0 -190.5 -102.5t-73.5 -319.5v-379h-258v1032h258v-188q35 90 116.5 147.5t174.5 57.5q16 0 31 -1.5t23 -3.5l7 -2zM31 -389l80 303h280l-178 -303h-182z" />
    <glyph glyph-name="germandbls.calt" horiz-adv-x="1304" 
d="M666 1450q201 0 337.5 -110.5t153.5 -280.5l-252 -250q143 -31 235.5 -133.5t92.5 -239.5q0 -190 -127 -313t-324 -123h-239v242h221q94 0 152.5 55t58.5 143t-60 140.5t-161 52.5h-148l-22 147l299 303q-20 58 -80 93.5t-137 35.5q-110 0 -181 -86t-71 -219v-907h-279
v907q0 243 149.5 393t381.5 150z" />
    <glyph glyph-name="a.ss01" horiz-adv-x="1239" 
d="M1114 1032v-1032h-258v119q-38 -62 -118 -98.5t-177 -36.5q-229 0 -360 146t-131 386t130.5 386.5t356.5 146.5q95 0 174.5 -35.5t124.5 -95.5v114h258zM326 516q0 -140 74.5 -224.5t197.5 -84.5q124 0 199 84.5t75 224.5t-75 224.5t-199 84.5q-123 0 -197.5 -84.5
t-74.5 -224.5z" />
    <glyph glyph-name="aacute.ss01" horiz-adv-x="1239" 
d="M1114 1032v-1032h-258v119q-38 -62 -118 -98.5t-177 -36.5q-229 0 -360 146t-131 386t130.5 386.5t356.5 146.5q95 0 174.5 -35.5t124.5 -95.5v114h258zM326 516q0 -140 74.5 -224.5t197.5 -84.5q124 0 199 84.5t75 224.5t-75 224.5t-199 84.5q-123 0 -197.5 -84.5
t-74.5 -224.5zM498 1147l129 303h299l-246 -303h-182z" />
    <glyph glyph-name="abreve.ss01" horiz-adv-x="1239" 
d="M1114 1032v-1032h-258v119q-38 -62 -118 -98.5t-177 -36.5q-229 0 -360 146t-131 386t130.5 386.5t356.5 146.5q95 0 174.5 -35.5t124.5 -95.5v114h258zM326 516q0 -140 74.5 -224.5t197.5 -84.5q124 0 199 84.5t75 224.5t-75 224.5t-199 84.5q-123 0 -197.5 -84.5
t-74.5 -224.5zM338 1417h190q0 -49 25.5 -78.5t67.5 -29.5q43 0 69.5 29.5t26.5 78.5h190q0 -119 -81 -197.5t-205 -78.5q-122 0 -202.5 79t-80.5 197z" />
    <glyph glyph-name="acircumflex.ss01" horiz-adv-x="1239" 
d="M1114 1032v-1032h-258v119q-38 -62 -118 -98.5t-177 -36.5q-229 0 -360 146t-131 386t130.5 386.5t356.5 146.5q95 0 174.5 -35.5t124.5 -95.5v114h258zM276 1147l234 303h219l234 -303h-189l-153 158l-156 -158h-189zM326 516q0 -140 74.5 -224.5t197.5 -84.5
q124 0 199 84.5t75 224.5t-75 224.5t-199 84.5q-123 0 -197.5 -84.5t-74.5 -224.5z" />
    <glyph glyph-name="adieresis.ss01" horiz-adv-x="1239" 
d="M1114 1032v-1032h-258v119q-38 -62 -118 -98.5t-177 -36.5q-229 0 -360 146t-131 386t130.5 386.5t356.5 146.5q95 0 174.5 -35.5t124.5 -95.5v114h258zM279 1319q0 59 40.5 100t100.5 41q63 0 105 -41t42 -100q0 -60 -42 -101.5t-105 -41.5q-60 0 -100.5 41.5
t-40.5 101.5zM326 516q0 -140 74.5 -224.5t197.5 -84.5q124 0 199 84.5t75 224.5t-75 224.5t-199 84.5q-123 0 -197.5 -84.5t-74.5 -224.5zM674 1319q0 59 41 100t102 41t103.5 -41t42.5 -100q0 -60 -42.5 -101.5t-103.5 -41.5t-102 41.5t-41 101.5z" />
    <glyph glyph-name="agrave.ss01" horiz-adv-x="1239" 
d="M1114 1032v-1032h-258v119q-38 -62 -118 -98.5t-177 -36.5q-229 0 -360 146t-131 386t130.5 386.5t356.5 146.5q95 0 174.5 -35.5t124.5 -95.5v114h258zM289 1450h299l129 -303h-182zM326 516q0 -140 74.5 -224.5t197.5 -84.5q124 0 199 84.5t75 224.5t-75 224.5
t-199 84.5q-123 0 -197.5 -84.5t-74.5 -224.5z" />
    <glyph glyph-name="amacron.ss01" horiz-adv-x="1239" 
d="M1114 1032v-1032h-258v119q-38 -62 -118 -98.5t-177 -36.5q-229 0 -360 146t-131 386t130.5 386.5t356.5 146.5q95 0 174.5 -35.5t124.5 -95.5v114h258zM326 516q0 -140 74.5 -224.5t197.5 -84.5q124 0 199 84.5t75 224.5t-75 224.5t-199 84.5q-123 0 -197.5 -84.5
t-74.5 -224.5zM336 1196v199h569v-199h-569z" />
    <glyph glyph-name="aogonek.ss01" horiz-adv-x="1239" 
d="M1114 1032v-1032q-70 -74 -70 -131q0 -35 21 -53.5t57 -18.5t52 4l24 -178q-54 -12 -115 -12q-110 0 -177.5 57.5t-67.5 149.5q0 42 21 92.5t54 89.5h-57v119q-38 -62 -118 -98.5t-177 -36.5q-229 0 -360 146t-131 386t130.5 386.5t356.5 146.5q95 0 174.5 -35.5
t124.5 -95.5v114h258zM326 516q0 -140 74.5 -224.5t197.5 -84.5q124 0 199 84.5t75 224.5t-75 224.5t-199 84.5q-123 0 -197.5 -84.5t-74.5 -224.5z" />
    <glyph glyph-name="aring.ss01" horiz-adv-x="1239" 
d="M1114 1032v-1032h-258v119q-38 -62 -118 -98.5t-177 -36.5q-229 0 -360 146t-131 386t130.5 386.5t356.5 146.5q95 0 174.5 -35.5t124.5 -95.5v114h258zM326 516q0 -140 74.5 -224.5t197.5 -84.5q124 0 199 84.5t75 224.5t-75 224.5t-199 84.5q-123 0 -197.5 -84.5
t-74.5 -224.5zM383 1331q0 97 67.5 161t170.5 64q104 0 171.5 -64t67.5 -161q0 -96 -67.5 -159.5t-171.5 -63.5q-102 0 -170 64t-68 159zM524 1331q0 -41 27.5 -66.5t69.5 -25.5q43 0 70.5 25.5t27.5 66.5t-27.5 67.5t-70.5 26.5q-42 0 -69.5 -26.5t-27.5 -67.5z" />
    <glyph glyph-name="aringacute.ss01" horiz-adv-x="1239" 
d="M1114 1032v-1032h-258v119q-38 -62 -118 -98.5t-177 -36.5q-229 0 -360 146t-131 386t130.5 386.5t356.5 146.5q95 0 174.5 -35.5t124.5 -95.5v114h258zM326 516q0 -140 74.5 -224.5t197.5 -84.5q124 0 199 84.5t75 224.5t-75 224.5t-199 84.5q-123 0 -197.5 -84.5
t-74.5 -224.5zM383 1331q0 76 43 133.5t113 79.5l123 287h299l-238 -293q63 -26 100 -81.5t37 -125.5q0 -96 -67.5 -159.5t-171.5 -63.5q-102 0 -170 64t-68 159zM524 1331q0 -41 27.5 -66.5t69.5 -25.5q43 0 70.5 25.5t27.5 66.5t-27.5 67.5t-70.5 26.5q-42 0 -69.5 -26.5
t-27.5 -67.5z" />
    <glyph glyph-name="atilde.ss01" horiz-adv-x="1239" 
d="M1114 1032v-1032h-258v119q-38 -62 -118 -98.5t-177 -36.5q-229 0 -360 146t-131 386t130.5 386.5t356.5 146.5q95 0 174.5 -35.5t124.5 -95.5v114h258zM221 1194q3 117 75 189.5t183 72.5q92 0 172 -55q5 -3 21 -13t20.5 -13t16.5 -9t19 -8t17 -4t21 -2q69 0 78 104
l180 -26q-4 -118 -76 -191.5t-182 -73.5q-89 0 -172 56q-4 3 -16 11t-16 10.5t-13.5 8.5t-14 7.5t-12.5 5t-14 5t-13.5 2.5t-15.5 1q-67 0 -82 -105zM326 516q0 -140 74.5 -224.5t197.5 -84.5q124 0 199 84.5t75 224.5t-75 224.5t-199 84.5q-123 0 -197.5 -84.5
t-74.5 -224.5z" />
    <glyph glyph-name="ae.ss01" horiz-adv-x="1984" 
d="M1114 1032v-117q121 134 307 134q102 0 185.5 -29t140 -77t95 -113t56 -135t17.5 -144q0 -62 -4 -102h-766q17 -117 89.5 -182.5t182.5 -65.5q90 0 151 41t81 116l243 -65q-43 -148 -159 -228.5t-297 -80.5q-199 0 -322 139v-123h-258v119q-38 -62 -118 -98.5t-177 -36.5
q-229 0 -360 146t-131 386t130.5 386.5t356.5 146.5q95 0 174.5 -35.5t124.5 -95.5v114h258zM326 516q0 -140 74.5 -224.5t197.5 -84.5q124 0 199 84.5t75 224.5t-75 224.5t-199 84.5q-123 0 -197.5 -84.5t-74.5 -224.5zM1151 637h487q-8 96 -70 155.5t-171 59.5
q-95 0 -159 -55.5t-87 -159.5z" />
    <glyph glyph-name="aeacute.ss01" horiz-adv-x="1984" 
d="M1114 1032v-117q121 134 307 134q102 0 185.5 -29t140 -77t95 -113t56 -135t17.5 -144q0 -62 -4 -102h-766q17 -117 89.5 -182.5t182.5 -65.5q90 0 151 41t81 116l243 -65q-43 -148 -159 -228.5t-297 -80.5q-199 0 -322 139v-123h-258v119q-38 -62 -118 -98.5t-177 -36.5
q-229 0 -360 146t-131 386t130.5 386.5t356.5 146.5q95 0 174.5 -35.5t124.5 -95.5v114h258zM326 516q0 -140 74.5 -224.5t197.5 -84.5q124 0 199 84.5t75 224.5t-75 224.5t-199 84.5q-123 0 -197.5 -84.5t-74.5 -224.5zM901 1147l129 303h299l-246 -303h-182zM1151 637h487
q-8 96 -70 155.5t-171 59.5q-95 0 -159 -55.5t-87 -159.5z" />
    <glyph glyph-name="g.ss02" horiz-adv-x="1091" 
d="M84 252q0 142 149 207q-92 95 -92 235q0 159 114 257t296 98q104 0 188 -35l152 157l149 -139l-137 -143q60 -86 60 -195q0 -159 -114 -255.5t-298 -96.5q-78 0 -156 20q-65 -33 -65 -79q0 -66 102 -66h242q180 0 280.5 -74.5t100.5 -214.5q0 -83 -39 -145.5t-109 -99
t-158.5 -54.5t-195.5 -18q-234 0 -368 75t-134 222q0 53 28 105.5t73 90.5q-68 62 -68 148zM301 -78q0 -54 59 -79t193 -25q252 0 252 106q0 52 -43.5 72t-130.5 20h-191q-50 0 -96 9q-43 -46 -43 -103zM381 694q0 -69 48 -111t122 -42q72 0 121 42t49 111q0 70 -49 113
t-121 43q-74 0 -122 -42.5t-48 -113.5z" />
    <glyph glyph-name="gbreve.ss02" horiz-adv-x="1091" 
d="M84 252q0 142 149 207q-92 95 -92 235q0 159 114 257t296 98q104 0 188 -35l152 157l149 -139l-137 -143q60 -86 60 -195q0 -159 -114 -255.5t-298 -96.5q-78 0 -156 20q-65 -33 -65 -79q0 -66 102 -66h242q180 0 280.5 -74.5t100.5 -214.5q0 -83 -39 -145.5t-109 -99
t-158.5 -54.5t-195.5 -18q-234 0 -368 75t-134 222q0 53 28 105.5t73 90.5q-68 62 -68 148zM260 1417h191q0 -49 25.5 -78.5t66.5 -29.5q43 0 69.5 29.5t26.5 78.5h190q0 -119 -81 -197.5t-205 -78.5q-122 0 -202.5 79t-80.5 197zM301 -78q0 -54 59 -79t193 -25
q252 0 252 106q0 52 -43.5 72t-130.5 20h-191q-50 0 -96 9q-43 -46 -43 -103zM381 694q0 -69 48 -111t122 -42q72 0 121 42t49 111q0 70 -49 113t-121 43q-74 0 -122 -42.5t-48 -113.5z" />
    <glyph glyph-name="gcircumflex.ss02" horiz-adv-x="1091" 
d="M84 252q0 142 149 207q-92 95 -92 235q0 159 114 257t296 98q104 0 188 -35l129 133h-172l-153 158l-156 -158h-188l233 303h219l226 -293l14 14l149 -139l-137 -143q60 -86 60 -195q0 -159 -114 -255.5t-298 -96.5q-78 0 -156 20q-65 -33 -65 -79q0 -66 102 -66h242
q180 0 280.5 -74.5t100.5 -214.5q0 -83 -39 -145.5t-109 -99t-158.5 -54.5t-195.5 -18q-234 0 -368 75t-134 222q0 53 28 105.5t73 90.5q-68 62 -68 148zM301 -78q0 -54 59 -79t193 -25q252 0 252 106q0 52 -43.5 72t-130.5 20h-191q-50 0 -96 9q-43 -46 -43 -103zM381 694
q0 -69 48 -111t122 -42q72 0 121 42t49 111q0 70 -49 113t-121 43q-74 0 -122 -42.5t-48 -113.5z" />
    <glyph glyph-name="uni0123.ss02" horiz-adv-x="1091" 
d="M84 252q0 142 149 207q-92 95 -92 235q0 159 114 257t296 98q104 0 188 -35l152 157l149 -139l-137 -143q60 -86 60 -195q0 -159 -114 -255.5t-298 -96.5q-78 0 -156 20q-65 -33 -65 -79q0 -66 102 -66h242q180 0 280.5 -74.5t100.5 -214.5q0 -83 -39 -145.5t-109 -99
t-158.5 -54.5t-195.5 -18q-234 0 -368 75t-134 222q0 53 28 105.5t73 90.5q-68 62 -68 148zM301 -78q0 -54 59 -79t193 -25q252 0 252 106q0 52 -43.5 72t-130.5 20h-191q-50 0 -96 9q-43 -46 -43 -103zM381 694q0 -69 48 -111t122 -42q72 0 121 42t49 111q0 70 -49 113
t-121 43q-74 0 -122 -42.5t-48 -113.5zM442 1147l127 303h199l-53 -303h-273z" />
    <glyph glyph-name="gdotaccent.ss02" horiz-adv-x="1091" 
d="M84 252q0 142 149 207q-92 95 -92 235q0 159 114 257t296 98q104 0 188 -35l152 157l149 -139l-137 -143q60 -86 60 -195q0 -159 -114 -255.5t-298 -96.5q-78 0 -156 20q-65 -33 -65 -79q0 -66 102 -66h242q180 0 280.5 -74.5t100.5 -214.5q0 -83 -39 -145.5t-109 -99
t-158.5 -54.5t-195.5 -18q-234 0 -368 75t-134 222q0 53 28 105.5t73 90.5q-68 62 -68 148zM301 -78q0 -54 59 -79t193 -25q252 0 252 106q0 52 -43.5 72t-130.5 20h-191q-50 0 -96 9q-43 -46 -43 -103zM381 694q0 -69 48 -111t122 -42q72 0 121 42t49 111q0 70 -49 113
t-121 43q-74 0 -122 -42.5t-48 -113.5zM383 1350q0 66 45.5 111.5t114.5 45.5q70 0 117 -45.5t47 -111.5q0 -68 -47 -114t-117 -46q-69 0 -114.5 46t-45.5 114z" />
    <glyph glyph-name="f_f.dlig" horiz-adv-x="1445" 
d="M215 0v815h-166v217h166v80q0 177 101.5 275t263.5 98q74 0 155 -23l-18 -213q-53 21 -103 21q-64 0 -102.5 -43t-38.5 -115v-80h408v80q0 177 101 275t263 98q75 0 156 -23l-19 -213q-52 21 -102 21q-64 0 -102.5 -43t-38.5 -115v-80h245v-217h-245v-815h-258v815h-408
v-815h-258z" />
    <glyph glyph-name="f_f_i.dlig" horiz-adv-x="1859" 
d="M807 0v815h-334v-815h-258v815h-166v217h166v80q0 177 101.5 275t263.5 98q74 0 155 -23l-18 -213q-53 21 -103 21q-64 0 -102.5 -43t-38.5 -115v-80h334v80q0 177 101 275t263 98q77 0 154 -23l-16 -213q-53 21 -103 21q-66 0 -106.5 -43.5t-40.5 -118.5v-76h676v-1032
h-258v815h-418v-815h-252zM1446 1350q0 66 45.5 111.5t114.5 45.5q70 0 116.5 -45.5t46.5 -111.5q0 -68 -46.5 -114t-116.5 -46q-69 0 -114.5 46t-45.5 114z" />
    <glyph glyph-name="f_f_l.dlig" horiz-adv-x="1894" 
d="M807 0v815h-334v-815h-258v815h-166v217h166v80q0 177 101.5 275t263.5 98q74 0 155 -23l-18 -213q-53 21 -103 21q-64 0 -102.5 -43t-38.5 -115v-80h334v80q0 177 101 275t263 98q77 0 154 -23l-16 -213q-53 21 -103 21q-66 0 -106.5 -43.5t-40.5 -118.5v-76h452v418
h258v-1450h-258v815h-452v-815h-252z" />
    <glyph glyph-name="f_i.dlig" horiz-adv-x="1251" 
d="M211 0v815h-162v217h162v80q0 177 100 275t262 98q79 0 156 -23l-16 -213q-52 21 -103 21q-66 0 -106.5 -43.5t-40.5 -118.5v-76h661v-1032h-258v815h-403v-815h-252zM836 1350q0 66 45 111.5t114 45.5q70 0 117 -45.5t47 -111.5q0 -68 -47 -114t-117 -46q-69 0 -114 46
t-45 114z" />
    <glyph glyph-name="f_l.dlig" horiz-adv-x="1284" 
d="M211 0v815h-162v217h162v80q0 177 100 275t262 98q79 0 156 -23l-16 -213q-52 21 -103 21q-66 0 -106.5 -43.5t-40.5 -118.5v-76h438v418h258v-1450h-258v815h-438v-815h-252z" />
    <glyph glyph-name="three.ss04" horiz-adv-x="1191" 
d="M598 -16q-148 0 -268 54.5t-190 157t-70 234.5l270 12q0 -101 71 -166t187 -65q112 0 182 56.5t70 146.5q0 99 -71 155t-189 56q-80 0 -109 -2l-2 223h84q107 0 174.5 60t67.5 149q1 82 -62 131t-161 49q-96 0 -164 -63.5t-66 -151.5l-252 14q-1 84 35.5 160.5t100 133
t154 89.5t192.5 33q206 0 342.5 -110t136.5 -275q0 -121 -75 -211t-195 -113q148 -9 239.5 -103t91.5 -237q0 -182 -147.5 -299.5t-376.5 -117.5z" />
    <glyph glyph-name="zero.tf" horiz-adv-x="1280" 
d="M627 -16q-271 0 -426.5 199t-155.5 534t155.5 534t426.5 199t426 -199t155 -534t-155 -534t-426 -199zM326 717q0 -233 77.5 -362.5t223.5 -129.5t224.5 129.5t78.5 362.5t-78.5 363t-224.5 130t-223.5 -130t-77.5 -363z" />
    <glyph glyph-name="one.tf" horiz-adv-x="1280" 
d="M158 242h401v884q-144 -114 -330 -151v248q100 23 198.5 78.5t176.5 132.5h213v-1192h336v-242h-995v242z" />
    <glyph glyph-name="two.tf" horiz-adv-x="1280" 
d="M135 0l-2 225l510 430q117 98 170 179t53 163q0 97 -61 155t-162 58q-119 0 -183 -85.5t-52 -227.5l-265 18q-14 149 48.5 272.5t182 193t269.5 69.5q226 0 365 -125.5t139 -327.5q0 -135 -81.5 -260.5t-258.5 -265.5l-283 -229h621v-242h-1010z" />
    <glyph glyph-name="three.tf" horiz-adv-x="1280" 
d="M631 -16q-221 0 -368 116t-167 306l254 40q15 -100 92 -160.5t191 -60.5q118 0 191 66t73 172q0 110 -69.5 173.5t-188.5 63.5q-95 0 -162 -47l-108 183l393 358h-625v240h950v-226l-366 -327q203 8 329 -107.5t126 -316.5q0 -214 -149.5 -343.5t-395.5 -129.5z" />
    <glyph glyph-name="four.tf" horiz-adv-x="1280" 
d="M768 0v299h-723v242l700 893h302v-893h182v-242h-182v-299h-279zM332 541h436v561z" />
    <glyph glyph-name="five.tf" horiz-adv-x="1280" 
d="M662 -16q-212 0 -357 108.5t-174 288.5l252 47q20 -94 92 -148.5t176 -54.5q114 0 183 70t69 184q0 118 -72.5 187t-195.5 69q-168 0 -268 -145l-201 43l119 801h790v-240h-588l-53 -342q51 45 124.5 73.5t146.5 28.5q212 0 344.5 -131.5t132.5 -343.5
q0 -224 -142 -359.5t-378 -135.5z" />
    <glyph glyph-name="six.tf" horiz-adv-x="1280" 
d="M678 967q220 0 362 -138.5t142 -353.5t-153.5 -353t-391.5 -138q-244 0 -397.5 185t-153.5 482q0 157 36 289t99 225t149 158t185.5 96t208.5 31q246 0 420 -145l-127 -203q-127 108 -287 108q-177 0 -293.5 -115t-128.5 -298q50 80 137 125t193 45zM379 489
q0 -116 74.5 -190t191.5 -74q115 0 188.5 74t73.5 190q2 114 -72.5 188.5t-189.5 74.5q-117 0 -191.5 -74.5t-74.5 -188.5z" />
    <glyph glyph-name="seven.tf" horiz-adv-x="1280" 
d="M106 1434h1096v-240q-558 -756 -596 -1194h-280q34 267 190 574t399 620h-550v-236h-259v476z" />
    <glyph glyph-name="eight.tf" horiz-adv-x="1280" 
d="M643 -16q-228 0 -378 119t-150 317q0 121 70 217.5t186 134.5q-88 41 -141.5 121t-53.5 172q0 167 129.5 276t337.5 109q205 0 334 -109.5t129 -275.5q0 -94 -54 -173.5t-143 -119.5q117 -37 187.5 -133t70.5 -219q0 -132 -70 -232t-188.5 -152t-265.5 -52zM387 426
q0 -98 69.5 -156.5t186.5 -58.5q115 0 183.5 58.5t68.5 156.5q0 97 -68.5 155t-183.5 58q-117 0 -186.5 -58t-69.5 -155zM432 1055q0 -82 57.5 -131.5t153.5 -49.5q94 0 150.5 49.5t56.5 131.5q1 83 -55.5 131.5t-151.5 48.5q-97 0 -154.5 -48.5t-56.5 -131.5z" />
    <glyph glyph-name="nine.tf" horiz-adv-x="1280" 
d="M602 473q-220 0 -362 138.5t-142 353.5t153.5 353t391.5 138q160 0 285.5 -83.5t195.5 -236t70 -348.5q0 -195 -55 -350t-149.5 -251.5t-215.5 -146.5t-258 -50q-246 0 -420 145l127 203q128 -109 287 -109q177 0 293.5 115.5t128.5 298.5q-50 -80 -137 -125t-193 -45z
M373 950q-1 -114 73 -188t189 -74q117 0 191.5 74t74.5 188q0 116 -74.5 190t-191.5 74q-115 0 -188.5 -74t-73.5 -190z" />
    <glyph glyph-name="uni2462.ss04" 
d="M805 -16q-156 0 -292 55.5t-233 152.5t-152.5 233t-55.5 292t55.5 292t152.5 233t233 152.5t292 55.5t292.5 -55.5t233.5 -152.5t153 -233t56 -292t-56 -292t-153 -233t-233.5 -152.5t-292.5 -55.5zM217 717q0 -255 167.5 -424.5t420.5 -169.5q126 0 235.5 45.5
t187.5 124t122.5 188.5t44.5 236t-44.5 236t-122.5 188.5t-187.5 124t-235.5 45.5q-253 0 -420.5 -169.5t-167.5 -424.5zM520 582l178 6q0 -43 33 -74t82 -31q52 0 84.5 26t32.5 66q0 44 -33.5 71.5t-87.5 27.5h-76v145h66q47 0 77.5 28.5t32.5 70.5q0 36 -29 57.5t-75 21.5
q-43 0 -74 -28t-31 -70l-165 10q0 92 77.5 161t190.5 69q114 0 192 -62t78 -149q0 -67 -38.5 -115.5t-100.5 -62.5q77 -6 125.5 -57t48.5 -126q0 -102 -82.5 -167.5t-210.5 -65.5q-123 0 -209 68.5t-86 179.5z" />
    <glyph glyph-name="three.tf.ss04" horiz-adv-x="1280" 
d="M651 -16q-148 0 -268 54.5t-190 157t-70 234.5l270 12q0 -101 71 -166t187 -65q112 0 182 56.5t70 146.5q0 99 -71 155t-189 56q-79 0 -108 -2l-3 223h84q107 0 174.5 60t67.5 149q1 82 -62 131t-161 49q-96 0 -163.5 -63.5t-65.5 -151.5l-252 14q-2 172 136 294t345 122
q206 0 342.5 -110t136.5 -275q0 -121 -75 -211t-195 -113q148 -9 240 -103.5t92 -236.5q0 -182 -148 -299.5t-377 -117.5z" />
    <glyph glyph-name="zero.dnom" horiz-adv-x="768" 
d="M383 -8q-156 0 -248 109.5t-92 293.5t92 293t248 109q155 0 247.5 -110t92.5 -292q0 -183 -92.5 -293t-247.5 -110zM231 395q0 -117 39.5 -180t112.5 -63t112.5 63t39.5 180q0 116 -39.5 179t-112.5 63t-112.5 -63t-39.5 -179z" />
    <glyph glyph-name="one.dnom" horiz-adv-x="471" 
d="M221 594q-97 -64 -172 -80v168q90 21 205 106h141v-788h-174v594z" />
    <glyph glyph-name="two.dnom" horiz-adv-x="694" 
d="M61 0l-2 145l244 203q71 58 106 104.5t35 88.5q0 43 -28 69.5t-74 26.5q-55 0 -85 -42.5t-24 -113.5l-178 13q-12 126 73 214.5t214 88.5q130 0 210.5 -71.5t80.5 -184.5q0 -152 -199 -295l-112 -86h311v-160h-572z" />
    <glyph glyph-name="three.dnom" horiz-adv-x="706" 
d="M348 -8q-125 0 -208 64t-95 171l170 27q11 -46 48.5 -74t88.5 -28q54 0 86.5 29.5t32.5 78.5q0 51 -32 80t-85 29q-52 0 -92 -27l-72 125l191 162h-313l2 159h532v-159l-184 -144q108 2 174.5 -60.5t66.5 -168.5q0 -120 -85.5 -192t-225.5 -72z" />
    <glyph glyph-name="four.dnom" horiz-adv-x="759" 
d="M436 0v143h-389v162l379 483h199v-483h92v-162h-92v-143h-189zM238 305h198v254z" />
    <glyph glyph-name="five.dnom" horiz-adv-x="694" 
d="M350 -8q-119 0 -200.5 59.5t-98.5 159.5l168 31q12 -42 45 -66t78 -24q52 0 83.5 31.5t31.5 82.5q0 52 -32.5 82.5t-88.5 30.5q-80 0 -131 -68l-135 29l67 448h445v-159h-312l-26 -158q56 53 143 53q113 0 184.5 -71.5t71.5 -186.5q0 -124 -80.5 -199t-212.5 -75z" />
    <glyph glyph-name="six.dnom" horiz-adv-x="737" 
d="M401 532q120 0 197.5 -76t77.5 -194q0 -116 -86.5 -193t-214.5 -77q-138 0 -228 101.5t-90 250.5q0 115 32 204t86.5 142t121 80t141.5 27q143 0 238 -86l-82 -119q-54 45 -150 45q-87 0 -142 -49.5t-66 -130.5q54 75 165 75zM254 274q0 -53 33.5 -87.5t87.5 -34.5
q52 0 85.5 34t35.5 88q1 52 -33.5 84.5t-87.5 32.5q-54 0 -87.5 -32.5t-33.5 -84.5z" />
    <glyph glyph-name="seven.dnom" horiz-adv-x="634" 
d="M119 0q108 359 311 629h-393v159h577v-159q-232 -326 -315 -629h-180z" />
    <glyph glyph-name="eight.dnom" horiz-adv-x="708" 
d="M356 -8q-125 0 -212 66t-87 178q0 64 38 116t100 72q-46 23 -73.5 66t-27.5 94q0 89 74 151t188 62q115 0 186.5 -61.5t71.5 -151.5q0 -52 -27.5 -95t-74.5 -65q63 -20 100 -71.5t37 -116.5q0 -112 -83.5 -178t-209.5 -66zM240 240q0 -44 31.5 -71.5t82.5 -27.5
q52 0 83.5 27.5t31.5 71.5q0 43 -31.5 69.5t-83.5 26.5q-51 0 -82.5 -26.5t-31.5 -69.5zM262 575q0 -37 25.5 -59t68.5 -22q41 0 67 22t26 59t-26 59.5t-67 22.5q-43 0 -68.5 -22.5t-25.5 -59.5z" />
    <glyph glyph-name="nine.dnom" horiz-adv-x="737" 
d="M336 256q-120 0 -197.5 76t-77.5 194q0 116 86.5 193.5t214.5 77.5q138 0 228 -102t90 -251q0 -115 -32 -204t-86.5 -141.5t-121 -79.5t-141.5 -27q-143 0 -238 86l82 119q54 -45 150 -45q87 0 142.5 49.5t66.5 130.5q-54 -76 -166 -76zM242 514q-1 -52 33 -84.5
t87 -32.5q54 0 87.5 32.5t33.5 84.5q0 53 -34 88t-87 35q-52 0 -85 -34.5t-35 -88.5z" />
    <glyph glyph-name="zero.numr" horiz-adv-x="768" 
d="M383 637q-156 0 -248 109.5t-92 293.5t92 293t248 109q155 0 247.5 -110t92.5 -292q0 -183 -92.5 -293t-247.5 -110zM231 1040q0 -117 39.5 -180t112.5 -63t112.5 63t39.5 180q0 116 -39.5 179t-112.5 63t-112.5 -63t-39.5 -179z" />
    <glyph glyph-name="one.numr" horiz-adv-x="471" 
d="M221 1239q-97 -64 -172 -80v168q88 21 205 107h141v-789h-174v594z" />
    <glyph glyph-name="two.numr" horiz-adv-x="694" 
d="M61 645l-2 146l244 202q71 58 106 104.5t35 88.5q0 43 -28 69.5t-74 26.5q-55 0 -85 -42.5t-24 -113.5l-178 13q-12 126 73 214.5t214 88.5q130 0 210.5 -71.5t80.5 -184.5q0 -152 -199 -295l-112 -86h311v-160h-572z" />
    <glyph glyph-name="three.numr" horiz-adv-x="706" 
d="M348 637q-125 0 -208 64t-95 171l170 27q11 -46 48.5 -74t88.5 -28q54 0 86.5 29.5t32.5 78.5q0 51 -32 80t-85 29q-52 0 -92 -27l-72 125l191 162h-313l2 160h532v-160l-184 -144q108 2 174.5 -60.5t66.5 -168.5q0 -120 -85.5 -192t-225.5 -72z" />
    <glyph glyph-name="four.numr" horiz-adv-x="759" 
d="M436 645v143h-389v162l379 484h199v-484h92v-162h-92v-143h-189zM238 950h198v254z" />
    <glyph glyph-name="five.numr" horiz-adv-x="694" 
d="M350 637q-119 0 -200.5 59.5t-98.5 159.5l168 31q12 -42 45 -66t78 -24q52 0 83.5 31.5t31.5 82.5q0 52 -32.5 82.5t-88.5 30.5q-80 0 -131 -68l-135 29l67 449h445v-160h-312l-26 -158q56 53 143 53q113 0 184.5 -71.5t71.5 -186.5q0 -124 -80.5 -199t-212.5 -75z" />
    <glyph glyph-name="six.numr" horiz-adv-x="737" 
d="M401 1178q120 0 197.5 -76.5t77.5 -194.5q0 -116 -86.5 -193t-214.5 -77q-138 0 -228 101.5t-90 250.5q0 115 32 204t86.5 142t121 80t141.5 27q143 0 238 -86l-82 -119q-54 45 -150 45q-87 0 -142 -49.5t-66 -130.5q54 76 165 76zM254 920q0 -53 34 -88t87 -35
q52 0 85.5 34.5t35.5 88.5q1 52 -33.5 84t-87.5 32q-54 0 -87.5 -32t-33.5 -84z" />
    <glyph glyph-name="seven.numr" horiz-adv-x="634" 
d="M119 645q108 359 311 629h-393l-2 160h579v-160q-232 -326 -315 -629h-180z" />
    <glyph glyph-name="eight.numr" horiz-adv-x="708" 
d="M354 637q-125 0 -211 66t-86 178q0 64 38 116t100 72q-46 23 -73.5 66t-27.5 94q0 89 73 151t187 62q115 0 187.5 -61.5t72.5 -151.5q0 -52 -27.5 -95t-74.5 -65q63 -20 100 -71.5t37 -116.5q0 -112 -84.5 -178t-210.5 -66zM240 885q0 -44 31.5 -71.5t82.5 -27.5
q52 0 83.5 27.5t31.5 71.5q0 43 -31.5 69.5t-83.5 26.5q-51 0 -82.5 -26.5t-31.5 -69.5zM262 1221q0 -37 24.5 -58.5t67.5 -21.5t69 21.5t26 58.5q0 36 -26.5 59t-68.5 23q-43 0 -67.5 -22t-24.5 -60z" />
    <glyph glyph-name="nine.numr" horiz-adv-x="737" 
d="M336 901q-120 0 -197.5 76t-77.5 194q0 116 86.5 193.5t214.5 77.5q138 0 228 -101.5t90 -250.5q0 -115 -32 -204t-86.5 -142t-121 -80t-141.5 -27q-143 0 -238 86l82 119q54 -45 150 -45q87 0 142.5 49.5t66.5 130.5q-54 -76 -166 -76zM242 1159q-1 -52 33 -84.5
t87 -32.5q54 0 87.5 32.5t33.5 84.5q0 53 -34 88t-87 35q-52 0 -85 -34.5t-35 -88.5z" />
    <glyph glyph-name="three.dnom.ss04" horiz-adv-x="679" 
d="M340 -8q-123 0 -209 68.5t-86 179.5l178 6q0 -43 33 -74t82 -31q52 0 84.5 26t32.5 66q0 44 -33.5 71.5t-87.5 27.5h-76v145h66q47 0 77.5 28t32.5 70q0 36 -29 58t-75 22q-43 0 -74 -28t-31 -70l-166 10q0 91 78 160.5t191 69.5q114 0 192 -62t78 -149
q0 -67 -38.5 -115.5t-100.5 -62.5q77 -6 125.5 -57t48.5 -126q0 -102 -82.5 -167.5t-210.5 -65.5z" />
    <glyph glyph-name="three.numr.ss04" horiz-adv-x="679" 
d="M340 637q-123 0 -209 68.5t-86 179.5l178 6q0 -43 33 -74t82 -31q52 0 84.5 26.5t32.5 66.5q0 44 -33.5 71t-87.5 27h-76v145h66q47 0 77.5 28.5t32.5 70.5q0 36 -29 57.5t-75 21.5q-43 0 -74 -28t-31 -70l-166 10q0 91 78 160.5t191 69.5q114 0 192 -62t78 -149
q0 -67 -38.5 -115.5t-100.5 -62.5q77 -6 125.5 -57t48.5 -126q0 -102 -82.5 -167.5t-210.5 -65.5z" />
    <glyph glyph-name="zero.subs" horiz-adv-x="768" 
d="M383 -356q-156 0 -248 109.5t-92 293.5t92 293t248 109q155 0 247.5 -110t92.5 -292q0 -183 -92.5 -293t-247.5 -110zM231 47q0 -117 39.5 -180.5t112.5 -63.5t112.5 63.5t39.5 180.5q0 116 -39.5 179t-112.5 63t-112.5 -63t-39.5 -179z" />
    <glyph glyph-name="one.subs" horiz-adv-x="471" 
d="M221 246q-97 -64 -172 -80v168q90 21 205 106h141v-788h-174v594z" />
    <glyph glyph-name="two.subs" horiz-adv-x="694" 
d="M61 -348l-2 145l244 203q71 58 106 104.5t35 88.5q0 43 -28 69.5t-74 26.5q-55 0 -85 -42.5t-24 -113.5l-178 12q-12 126 73 215t214 89q130 0 210.5 -71.5t80.5 -184.5q0 -152 -199 -295l-112 -86h311v-160h-572z" />
    <glyph glyph-name="three.subs" horiz-adv-x="706" 
d="M348 -356q-125 0 -208 64t-95 171l170 27q11 -46 48.5 -74.5t88.5 -28.5q54 0 86.5 30t32.5 79q0 50 -32 79t-85 29t-92 -26l-72 125l191 162h-313l2 159h532v-159l-184 -144q108 2 174.5 -60.5t66.5 -168.5q0 -120 -85.5 -192t-225.5 -72z" />
    <glyph glyph-name="four.subs" horiz-adv-x="759" 
d="M436 -348v143h-389v162l379 483h199v-483h92v-162h-92v-143h-189zM238 -43h198v254z" />
    <glyph glyph-name="five.subs" horiz-adv-x="694" 
d="M350 -356q-119 0 -200.5 59.5t-98.5 159.5l168 31q12 -42 45 -66.5t78 -24.5q52 0 83.5 32t31.5 83q0 52 -32.5 82.5t-88.5 30.5q-80 0 -131 -68l-135 29l67 448h445v-159h-312l-26 -158q56 53 143 53q113 0 184.5 -71.5t71.5 -186.5q0 -124 -80.5 -199t-212.5 -75z" />
    <glyph glyph-name="six.subs" horiz-adv-x="737" 
d="M401 184q120 0 197.5 -76t77.5 -194q0 -116 -86.5 -193t-214.5 -77q-138 0 -228 101.5t-90 250.5q0 115 32 204t86.5 142t121 80t141.5 27q142 0 238 -87l-82 -118q-54 45 -150 45q-87 0 -142 -49.5t-66 -130.5q54 75 165 75zM254 -74q0 -53 34 -88t87 -35
q52 0 85.5 34.5t35.5 88.5q1 52 -33.5 84.5t-87.5 32.5q-54 0 -87.5 -32.5t-33.5 -84.5z" />
    <glyph glyph-name="seven.subs" horiz-adv-x="634" 
d="M119 -348q108 359 311 629h-393v159h577v-159q-232 -326 -315 -629h-180z" />
    <glyph glyph-name="eight.subs" horiz-adv-x="708" 
d="M356 -356q-125 0 -212 66t-87 177q0 64 38 116.5t100 72.5q-46 23 -73.5 66t-27.5 94q0 89 74 151t188 62q115 0 186.5 -61.5t71.5 -151.5q0 -52 -27.5 -95t-74.5 -65q63 -20 100 -72t37 -117q0 -112 -83.5 -177.5t-209.5 -65.5zM240 -109q0 -44 31.5 -71t82.5 -27
q52 0 83.5 27t31.5 71q0 43 -31.5 70t-83.5 27q-51 0 -82.5 -27t-31.5 -70zM262 227q0 -37 25.5 -59.5t68.5 -22.5q41 0 67 22.5t26 59.5t-26 59.5t-67 22.5q-43 0 -68.5 -22.5t-25.5 -59.5z" />
    <glyph glyph-name="nine.subs" horiz-adv-x="737" 
d="M336 -92q-120 0 -197.5 76t-77.5 194q0 116 86.5 193.5t214.5 77.5q138 0 228 -102t90 -251q0 -115 -32 -204t-86.5 -141.5t-121 -79.5t-141.5 -27q-143 0 -238 86l82 118q54 -45 150 -45q87 0 142.5 50t66.5 131q-54 -76 -166 -76zM242 166q-1 -52 33 -84.5t87 -32.5
q54 0 87.5 32.5t33.5 84.5q0 53 -34 88t-87 35q-52 0 -85 -34.5t-35 -88.5z" />
    <glyph glyph-name="zero.sups" horiz-adv-x="768" 
d="M383 760q-156 0 -248 109.5t-92 293.5t92 293t248 109q155 0 247.5 -110t92.5 -292q0 -183 -92.5 -293t-247.5 -110zM231 1163q0 -117 39.5 -180t112.5 -63t112.5 63t39.5 180q0 116 -39.5 179t-112.5 63t-112.5 -63t-39.5 -179z" />
    <glyph glyph-name="one.sups" horiz-adv-x="471" 
d="M221 1362q-97 -64 -172 -80v168q90 21 205 106h141v-788h-174v594z" />
    <glyph glyph-name="two.sups" horiz-adv-x="694" 
d="M61 768l-2 145l244 203q71 58 106 104.5t35 88.5q0 43 -28 69.5t-74 26.5q-55 0 -85 -42.5t-24 -113.5l-178 13q-12 126 73 214.5t214 88.5q130 0 210.5 -71.5t80.5 -184.5q0 -152 -199 -295l-112 -86h311v-160h-572z" />
    <glyph glyph-name="three.sups" horiz-adv-x="706" 
d="M348 760q-125 0 -208 64t-95 171l170 27q11 -46 48.5 -74t88.5 -28q54 0 86.5 29.5t32.5 78.5q0 51 -32 80t-85 29q-52 0 -92 -27l-72 125l191 162h-313l2 159h532v-159l-184 -144q108 2 174.5 -60.5t66.5 -168.5q0 -120 -85.5 -192t-225.5 -72z" />
    <glyph glyph-name="four.sups" horiz-adv-x="759" 
d="M436 768v143h-389v162l379 483h199v-483h92v-162h-92v-143h-189zM238 1073h198v254z" />
    <glyph glyph-name="five.sups" horiz-adv-x="694" 
d="M350 760q-119 0 -200.5 59.5t-98.5 159.5l168 31q12 -42 45 -66t78 -24q52 0 83.5 31.5t31.5 82.5q0 52 -32.5 82.5t-88.5 30.5q-80 0 -131 -68l-135 29l67 448h445v-159h-312l-26 -158q56 53 143 53q113 0 184.5 -71.5t71.5 -186.5q0 -124 -80.5 -199t-212.5 -75z" />
    <glyph glyph-name="six.sups" horiz-adv-x="737" 
d="M401 1300q120 0 197.5 -76t77.5 -194t-87 -194t-222 -76q-134 0 -222 105t-88 268q0 107 32 192t86.5 136t121.5 77.5t141 26.5q143 0 238 -86l-82 -119q-54 45 -150 45q-87 0 -142 -49.5t-66 -130.5q54 75 165 75zM254 1042q0 -53 33.5 -87.5t87.5 -34.5q52 0 85.5 34
t35.5 88q1 52 -33.5 84.5t-87.5 32.5q-54 0 -87.5 -32.5t-33.5 -84.5z" />
    <glyph glyph-name="seven.sups" horiz-adv-x="634" 
d="M119 768q108 359 311 629h-393v159h577v-159q-232 -326 -315 -629h-180z" />
    <glyph glyph-name="eight.sups" horiz-adv-x="708" 
d="M356 760q-125 0 -212 66t-87 178q0 64 38 116t100 72q-46 23 -73.5 66t-27.5 94q0 89 74 151t188 62q115 0 186.5 -61.5t71.5 -151.5q0 -52 -27.5 -95t-74.5 -65q63 -20 100 -71.5t37 -116.5q0 -112 -83.5 -178t-209.5 -66zM240 1008q0 -44 31.5 -71.5t82.5 -27.5
q52 0 83.5 27.5t31.5 71.5q0 43 -31.5 69.5t-83.5 26.5q-51 0 -82.5 -26.5t-31.5 -69.5zM262 1343q0 -37 25.5 -59t68.5 -22q41 0 67 22t26 59t-26 59.5t-67 22.5q-43 0 -68.5 -22.5t-25.5 -59.5z" />
    <glyph glyph-name="nine.sups" horiz-adv-x="737" 
d="M336 1024q-122 0 -199.5 76t-77.5 194t88 194.5t222 76.5t220.5 -104.5t86.5 -268.5q0 -107 -32 -192t-85.5 -136t-120 -77.5t-139.5 -26.5q-142 0 -242 86l84 119q57 -45 152 -45q86 0 142 49.5t67 130.5q-57 -76 -166 -76zM244 1284q0 -53 33 -86t85 -33
q54 0 87.5 32.5t33.5 86.5q0 53 -33.5 87t-87.5 34q-51 0 -84 -33.5t-34 -87.5z" />
    <glyph glyph-name="three.subs.ss04" horiz-adv-x="679" 
d="M340 -356q-123 0 -209 68t-86 179l178 7q0 -43 33 -74t82 -31q52 0 84.5 26t32.5 66q0 44 -33.5 71.5t-87.5 27.5h-76v145h66q47 0 77.5 28t32.5 70q0 36 -29 58t-75 22q-43 0 -74 -28t-31 -70l-166 10q0 91 78 160.5t191 69.5q114 0 192 -62t78 -149q0 -67 -38.5 -116
t-100.5 -63q77 -6 125.5 -56.5t48.5 -125.5q0 -102 -82.5 -167.5t-210.5 -65.5z" />
    <glyph glyph-name="uni00B3.ss04" horiz-adv-x="692" 
d="M340 760q-123 0 -209 68.5t-86 179.5l178 6q0 -43 33 -74t82 -31q52 0 84.5 26t32.5 66q0 44 -33.5 71.5t-87.5 27.5h-76v145h66q47 0 77.5 28t32.5 70q0 36 -29 58t-75 22q-43 0 -74 -28t-31 -70l-166 10q0 91 78 160.5t191 69.5q114 0 192 -62t78 -149
q0 -67 -38.5 -115.5t-100.5 -62.5q77 -6 125.5 -57t48.5 -126q0 -102 -82.5 -167.5t-210.5 -65.5z" />
    <glyph glyph-name="three.sups.ss04" horiz-adv-x="692" 
d="M340 760q-123 0 -209 68.5t-86 179.5l178 6q0 -43 33 -74t82 -31q52 0 84.5 26t32.5 66q0 44 -33.5 71.5t-87.5 27.5h-76v145h66q47 0 77.5 28t32.5 70q0 36 -29 58t-75 22q-43 0 -74 -28t-31 -70l-166 10q0 91 78 160.5t191 69.5q114 0 192 -62t78 -149
q0 -67 -38.5 -115.5t-100.5 -62.5q77 -6 125.5 -57t48.5 -126q0 -102 -82.5 -167.5t-210.5 -65.5z" />
    <glyph glyph-name="space.tf" horiz-adv-x="1280" 
 />
    <glyph glyph-name="colon.case" horiz-adv-x="571" 
d="M285 918q-68 0 -114 45t-46 112t46 112.5t114 45.5q69 0 114 -45t45 -113t-45 -112.5t-114 -44.5zM125 326q0 67 46 112t114 45q69 0 114 -44.5t45 -112.5t-45 -113t-114 -45q-68 0 -114 45.5t-46 112.5z" />
    <glyph glyph-name="bullet.case" horiz-adv-x="964" 
d="M485 291q-173 0 -293 119t-120 290q0 111 54.5 205.5t150 149.5t208.5 55q167 0 286.5 -120.5t119.5 -289.5q0 -170 -119 -289.5t-287 -119.5z" />
    <glyph glyph-name="period.tf" horiz-adv-x="1280" 
d="M639 -16q-68 0 -114 45t-46 112t46 112.5t114 45.5q69 0 114.5 -45t45.5 -113t-45.5 -112.5t-114.5 -44.5z" />
    <glyph glyph-name="comma.tf" horiz-adv-x="1280" 
d="M410 -256l135 526h307l-272 -526h-170z" />
    <glyph glyph-name="hyphen.case" horiz-adv-x="770" 
d="M55 621v221h660v-221h-660z" />
    <glyph glyph-name="uni00AD.case" horiz-adv-x="770" 
d="M55 621v221h660v-221h-660z" />
    <glyph glyph-name="endash.case" horiz-adv-x="1024" 
d="M45 621v221h934v-221h-934z" />
    <glyph glyph-name="emdash.case" horiz-adv-x="2048" 
d="M45 621v221h1958v-221h-1958z" />
    <glyph glyph-name="parenleft.case" horiz-adv-x="598" 
d="M395 -322q-172 207 -261 461t-89 537q0 281 89 534.5t261 458.5l176 -133q-282 -392 -282 -860q0 -466 282 -864z" />
    <glyph glyph-name="parenright.case" horiz-adv-x="598" 
d="M27 -188q282 398 282 864q0 468 -282 860l176 133q172 -205 261 -458.5t89 -534.5q0 -283 -89 -537t-261 -461z" />
    <glyph glyph-name="braceleft.case" horiz-adv-x="692" 
d="M526 -260q-114 0 -187 76.5t-73 193.5v428q0 92 -43 133t-133 41v222q90 0 133 40t43 132v430q0 117 73 192.5t187 75.5h127v-213h-45q-112 0 -112 -117v-426q0 -96 -42 -145.5t-122 -79.5q53 -21 85.5 -44t55.5 -69.5t23 -113.5v-426q0 -117 112 -117h45v-213h-127z" />
    <glyph glyph-name="braceright.case" horiz-adv-x="692" 
d="M166 -260h-127v213h45q113 0 113 117v426q0 97 41 146t122 81q-80 30 -121.5 79.5t-41.5 145.5v426q0 117 -113 117h-45v213h127q114 0 187 -75.5t73 -192.5v-430q0 -92 43 -132t133 -40v-222q-90 0 -133 -41t-43 -133v-428q0 -117 -73 -193.5t-187 -76.5z" />
    <glyph glyph-name="bracketleft.case" horiz-adv-x="651" 
d="M135 -274v1968h463v-209h-233v-1551h233v-208h-463z" />
    <glyph glyph-name="bracketright.case" horiz-adv-x="651" 
d="M516 -274h-463v208h234v1551h-234v209h463v-1968z" />
    <glyph glyph-name="quotesinglbase.ss05" horiz-adv-x="458" 
d="M389 139q0 -40 -16 -81t-78 -146l-82 -143h-127l98 217q-51 13 -82.5 56t-31.5 97q0 66 47 113t114 47q65 0 111.5 -47t46.5 -113z" />
    <glyph glyph-name="quotedblbase.ss05" horiz-adv-x="851" 
d="M389 139q0 -40 -16 -81t-78 -146l-82 -143h-127l98 217q-51 13 -82.5 56t-31.5 97q0 66 47 113t114 47q65 0 111.5 -47t46.5 -113zM463 139q0 66 47.5 113t114.5 47q65 0 111 -47t46 -113q0 -40 -16 -81t-78 -146l-82 -143h-127l99 217q-51 13 -83 56t-32 97z" />
    <glyph glyph-name="quotedblleft.ss05" horiz-adv-x="851" 
d="M70 1079q0 41 16 82t78 146l82 143h127l-99 -217q51 -13 83 -56.5t32 -97.5q0 -66 -47.5 -112.5t-114.5 -46.5q-65 0 -111 46.5t-46 112.5zM463 1079q0 41 16 82t78 146l82 143h127l-98 -217q51 -13 82.5 -56.5t31.5 -97.5q0 -66 -47 -112.5t-114 -46.5
q-65 0 -111.5 46.5t-46.5 112.5z" />
    <glyph glyph-name="quotedblright.ss05" horiz-adv-x="851" 
d="M389 1294q0 -40 -16 -81t-78 -146l-82 -143h-127l98 217q-51 13 -82.5 56t-31.5 97q0 66 47 113t114 47q65 0 111.5 -47t46.5 -113zM463 1294q0 66 47.5 113t114.5 47q65 0 111 -47t46 -113q0 -40 -16 -81t-78 -146l-82 -143h-127l99 217q-51 13 -83 56t-32 97z" />
    <glyph glyph-name="quoteleft.ss05" horiz-adv-x="458" 
d="M70 1069q0 40 16 81t78 146l82 144h127l-99 -217q51 -13 83 -56.5t32 -97.5q0 -66 -47.5 -113t-114.5 -47q-65 0 -111 47t-46 113z" />
    <glyph glyph-name="quoteright.ss05" horiz-adv-x="458" 
d="M389 1294q0 -40 -16 -81t-78 -146l-82 -143h-127l98 217q-51 13 -82.5 56t-31.5 97q0 66 47 113t114 47q65 0 111.5 -47t46.5 -113z" />
    <glyph glyph-name="at.case" horiz-adv-x="1869" 
d="M1120 1012h203v-520q0 -49 28 -77t70 -28q73 0 119.5 83.5t46.5 225.5q0 166 -80.5 293t-221.5 194.5t-320 67.5q-194 0 -348 -82t-240 -229.5t-86 -333.5q0 -294 187 -477.5t487 -183.5q138 0 264.5 36.5t263.5 112.5l76 -207q-168 -75 -311.5 -109t-305.5 -34
q-189 0 -351 64.5t-276.5 178t-179.5 273.5t-65 346q0 179 67.5 336.5t184 269t281 176t352.5 64.5q236 0 427 -98t298.5 -271t107.5 -387q0 -234 -108 -371t-281 -137q-86 0 -150 34t-96 97q-37 -59 -106 -92.5t-160 -33.5q-178 0 -283.5 112t-105.5 303q0 185 106 299.5
t275 116.5q72 0 132.5 -26.5t98.5 -71.5v86zM709 608q0 -110 58.5 -175.5t154.5 -65.5q95 0 153 66t58 175t-58 175.5t-153 66.5t-154 -66.5t-59 -175.5z" />
    <glyph glyph-name="percent.part" horiz-adv-x="770" 
d="M387 729q-151 0 -243.5 100t-92.5 261t92 260.5t244 99.5q150 0 242 -100t92 -260q0 -161 -92 -261t-242 -100zM248 1090q0 -86 37 -135.5t102 -49.5q63 0 99 49.5t36 135.5t-36 135t-99 49q-65 0 -102 -49t-37 -135z" />
    <glyph glyph-name="uni030C.alt" horiz-adv-x="0" 
d="M102 1147l64 381h248l-162 -381h-150z" />
    </font>
</defs>
</svg>
